  0
SECTION
  2
HEADER
  9
$ACADVER
  1
AC1021
  9
$ACADMAINTVER
 70
    50
  9
$DWGCODEPAGE
  3
ANSI_1252
  9
$LASTSAVEDBY
  1
Nicole
  9
$INSBASE
 10
0.0
 20
0.0
 30
0.0
  9
$EXTMIN
 10
-33.62888301613214
 20
-8.249999999998916
 30
0.0
  9
$EXTMAX
 10
36.52561951776155
 20
28.67148703010851
 30
0.0
  9
$LIMMIN
 10
0.0
 20
0.0
  9
$LIMMAX
 10
12.0
 20
9.0
  9
$ORTHOMODE
 70
     1
  9
$REGENMODE
 70
     1
  9
$FILLMODE
 70
     1
  9
$QTEXTMODE
 70
     0
  9
$MIRRTEXT
 70
     0
  9
$LTSCALE
 40
1.0
  9
$ATTMODE
 70
     1
  9
$TEXTSIZE
 40
0.2
  9
$TRACEWID
 40
0.05
  9
$TEXTSTYLE
  7
Standard
  9
$CLAYER
  8
0484.000
  9
$CELTYPE
  6
ByLayer
  9
$CECOLOR
 62
   256
  9
$CELTSCALE
 40
1.0
  9
$DISPSILH
 70
     0
  9
$DIMSCALE
 40
1.0
  9
$DIMASZ
 40
0.18
  9
$DIMEXO
 40
0.0625
  9
$DIMDLI
 40
0.38
  9
$DIMRND
 40
0.0
  9
$DIMDLE
 40
0.0
  9
$DIMEXE
 40
0.18
  9
$DIMTP
 40
0.0
  9
$DIMTM
 40
0.0
  9
$DIMTXT
 40
0.18
  9
$DIMCEN
 40
0.09
  9
$DIMTSZ
 40
0.0
  9
$DIMTOL
 70
     0
  9
$DIMLIM
 70
     0
  9
$DIMTIH
 70
     1
  9
$DIMTOH
 70
     1
  9
$DIMSE1
 70
     0
  9
$DIMSE2
 70
     0
  9
$DIMTAD
 70
     0
  9
$DIMZIN
 70
     0
  9
$DIMBLK
  1

  9
$DIMASO
 70
     1
  9
$DIMSHO
 70
     1
  9
$DIMPOST
  1

  9
$DIMAPOST
  1

  9
$DIMALT
 70
     0
  9
$DIMALTD
 70
     2
  9
$DIMALTF
 40
25.4
  9
$DIMLFAC
 40
1.0
  9
$DIMTOFL
 70
     0
  9
$DIMTVP
 40
0.0
  9
$DIMTIX
 70
     0
  9
$DIMSOXD
 70
     0
  9
$DIMSAH
 70
     0
  9
$DIMBLK1
  1

  9
$DIMBLK2
  1

  9
$DIMSTYLE
  2
Standard
  9
$DIMCLRD
 70
     0
  9
$DIMCLRE
 70
     0
  9
$DIMCLRT
 70
     0
  9
$DIMTFAC
 40
1.0
  9
$DIMGAP
 40
0.09
  9
$DIMJUST
 70
     0
  9
$DIMSD1
 70
     0
  9
$DIMSD2
 70
     0
  9
$DIMTOLJ
 70
     1
  9
$DIMTZIN
 70
     0
  9
$DIMALTZ
 70
     0
  9
$DIMALTTZ
 70
     0
  9
$DIMUPT
 70
     0
  9
$DIMDEC
 70
     4
  9
$DIMTDEC
 70
     4
  9
$DIMALTU
 70
     4
  9
$DIMALTTD
 70
     2
  9
$DIMTXSTY
  7
Standard
  9
$DIMAUNIT
 70
     0
  9
$DIMADEC
 70
     0
  9
$DIMALTRND
 40
0.0
  9
$DIMAZIN
 70
     0
  9
$DIMDSEP
 70
    46
  9
$DIMATFIT
 70
     3
  9
$DIMFRAC
 70
     0
  9
$DIMLDRBLK
  1

  9
$DIMLUNIT
 70
     4
  9
$DIMLWD
 70
    -2
  9
$DIMLWE
 70
    -2
  9
$DIMTMOVE
 70
     0
  9
$DIMFXL
 40
1.0
  9
$DIMFXLON
 70
     0
  9
$DIMJOGANG
 40
0.7853981633974483
  9
$DIMTFILL
 70
     0
  9
$DIMTFILLCLR
 70
     0
  9
$DIMARCSYM
 70
     0
  9
$DIMLTYPE
  6

  9
$DIMLTEX1
  6

  9
$DIMLTEX2
  6

  9
$LUNITS
 70
     4
  9
$LUPREC
 70
     4
  9
$SKETCHINC
 40
0.1
  9
$FILLETRAD
 40
0.0
  9
$AUNITS
 70
     0
  9
$AUPREC
 70
     0
  9
$MENU
  1
.
  9
$ELEVATION
 40
0.0
  9
$PELEVATION
 40
0.0
  9
$THICKNESS
 40
0.0
  9
$LIMCHECK
 70
     0
  9
$CHAMFERA
 40
0.0
  9
$CHAMFERB
 40
0.0
  9
$CHAMFERC
 40
0.0
  9
$CHAMFERD
 40
0.0
  9
$SKPOLY
 70
     0
  9
$TDCREATE
 40
2457933.643265417
  9
$TDUCREATE
 40
2457933.809932084
  9
$TDUPDATE
 40
2457933.684434352
  9
$TDUUPDATE
 40
2457933.851101019
  9
$TDINDWG
 40
0.0382718750
  9
$TDUSRTIMER
 40
0.0382718750
  9
$USRTIMER
 70
     1
  9
$ANGBASE
 50
0.0
  9
$ANGDIR
 70
     0
  9
$PDMODE
 70
     0
  9
$PDSIZE
 40
0.0
  9
$PLINEWID
 40
0.0
  9
$SPLFRAME
 70
     0
  9
$SPLINETYPE
 70
     6
  9
$SPLINESEGS
 70
     8
  9
$HANDSEED
  5
6D2
  9
$SURFTAB1
 70
     6
  9
$SURFTAB2
 70
     6
  9
$SURFTYPE
 70
     6
  9
$SURFU
 70
     6
  9
$SURFV
 70
     6
  9
$UCSBASE
  2

  9
$UCSNAME
  2

  9
$UCSORG
 10
0.0
 20
0.0
 30
0.0
  9
$UCSXDIR
 10
1.0
 20
0.0
 30
0.0
  9
$UCSYDIR
 10
0.0
 20
1.0
 30
0.0
  9
$UCSORTHOREF
  2

  9
$UCSORTHOVIEW
 70
     0
  9
$UCSORGTOP
 10
0.0
 20
0.0
 30
0.0
  9
$UCSORGBOTTOM
 10
0.0
 20
0.0
 30
0.0
  9
$UCSORGLEFT
 10
0.0
 20
0.0
 30
0.0
  9
$UCSORGRIGHT
 10
0.0
 20
0.0
 30
0.0
  9
$UCSORGFRONT
 10
0.0
 20
0.0
 30
0.0
  9
$UCSORGBACK
 10
0.0
 20
0.0
 30
0.0
  9
$PUCSBASE
  2

  9
$PUCSNAME
  2

  9
$PUCSORG
 10
0.0
 20
0.0
 30
0.0
  9
$PUCSXDIR
 10
1.0
 20
0.0
 30
0.0
  9
$PUCSYDIR
 10
0.0
 20
1.0
 30
0.0
  9
$PUCSORTHOREF
  2

  9
$PUCSORTHOVIEW
 70
     0
  9
$PUCSORGTOP
 10
0.0
 20
0.0
 30
0.0
  9
$PUCSORGBOTTOM
 10
0.0
 20
0.0
 30
0.0
  9
$PUCSORGLEFT
 10
0.0
 20
0.0
 30
0.0
  9
$PUCSORGRIGHT
 10
0.0
 20
0.0
 30
0.0
  9
$PUCSORGFRONT
 10
0.0
 20
0.0
 30
0.0
  9
$PUCSORGBACK
 10
0.0
 20
0.0
 30
0.0
  9
$USERI1
 70
     0
  9
$USERI2
 70
     0
  9
$USERI3
 70
     0
  9
$USERI4
 70
     0
  9
$USERI5
 70
     0
  9
$USERR1
 40
0.0
  9
$USERR2
 40
0.0
  9
$USERR3
 40
0.0
  9
$USERR4
 40
0.0
  9
$USERR5
 40
0.0
  9
$WORLDVIEW
 70
     1
  9
$SHADEDGE
 70
     3
  9
$SHADEDIF
 70
    70
  9
$TILEMODE
 70
     1
  9
$MAXACTVP
 70
    64
  9
$PINSBASE
 10
0.0
 20
0.0
 30
0.0
  9
$PLIMCHECK
 70
     0
  9
$PEXTMIN
 10
1.000000000000000E+20
 20
1.000000000000000E+20
 30
1.000000000000000E+20
  9
$PEXTMAX
 10
-1.000000000000000E+20
 20
-1.000000000000000E+20
 30
-1.000000000000000E+20
  9
$PLIMMIN
 10
0.0
 20
0.0
  9
$PLIMMAX
 10
12.0
 20
9.0
  9
$UNITMODE
 70
     0
  9
$VISRETAIN
 70
     1
  9
$PLINEGEN
 70
     0
  9
$PSLTSCALE
 70
     1
  9
$TREEDEPTH
 70
  3020
  9
$CMLSTYLE
  2
Standard
  9
$CMLJUST
 70
     0
  9
$CMLSCALE
 40
1.0
  9
$PROXYGRAPHICS
 70
     1
  9
$MEASUREMENT
 70
     0
  9
$CELWEIGHT
370
    -1
  9
$ENDCAPS
280
     0
  9
$JOINSTYLE
280
     0
  9
$LWDISPLAY
290
     0
  9
$INSUNITS
 70
     1
  9
$HYPERLINKBASE
  1

  9
$STYLESHEET
  1

  9
$XEDIT
290
     1
  9
$CEPSNTYPE
380
     0
  9
$PSTYLEMODE
290
     1
  9
$FINGERPRINTGUID
  2
{B99F2848-6231-448C-8DD9-B4C97C8752EC}
  9
$VERSIONGUID
  2
{2B2624F2-274F-45AF-BB10-B2BE83E2F0C5}
  9
$EXTNAMES
290
     1
  9
$PSVPSCALE
 40
0.0
  9
$OLESTARTUP
290
     0
  9
$SORTENTS
280
   127
  9
$INDEXCTL
280
     0
  9
$HIDETEXT
280
     1
  9
$XCLIPFRAME
290
     0
  9
$HALOGAP
280
     0
  9
$OBSCOLOR
 70
   257
  9
$OBSLTYPE
280
     0
  9
$INTERSECTIONDISPLAY
280
     0
  9
$INTERSECTIONCOLOR
 70
   257
  9
$DIMASSOC
280
     2
  9
$PROJECTNAME
  1

  9
$CAMERADISPLAY
290
     0
  9
$LENSLENGTH
 40
50.0
  9
$CAMERAHEIGHT
 40
0.0
  9
$STEPSPERSEC
 40
2.0
  9
$STEPSIZE
 40
6.0
  9
$3DDWFPREC
 40
2.0
  9
$PSOLWIDTH
 40
0.25
  9
$PSOLHEIGHT
 40
4.0
  9
$LOFTANG1
 40
1.570796326794896
  9
$LOFTANG2
 40
1.570796326794896
  9
$LOFTMAG1
 40
0.0
  9
$LOFTMAG2
 40
0.0
  9
$LOFTPARAM
 70
     7
  9
$LOFTNORMALS
280
     1
  9
$LATITUDE
 40
0.0
  9
$LONGITUDE
 40
0.0
  9
$NORTHDIRECTION
 40
0.0
  9
$TIMEZONE
 70
     0
  9
$LIGHTGLYPHDISPLAY
280
     1
  9
$TILEMODELIGHTSYNCH
280
     1
  9
$CMATERIAL
347
11
  9
$SOLIDHIST
280
     0
  9
$SHOWHIST
280
     1
  9
$DWFFRAME
280
     2
  9
$DGNFRAME
280
     0
  9
$REALWORLDSCALE
290
     1
  9
$INTERFERECOLOR
 62
     1
  9
$INTERFEREOBJVS
345
33
  9
$INTERFEREVPVS
346
30
  9
$CSHADOW
280
     0
  9
$SHADOWPLANELOCATION
 40
0.0
  0
ENDSEC
  0
SECTION
  2
CLASSES
  0
CLASS
  1
ACDBDICTIONARYWDFLT
  2
AcDbDictionaryWithDefault
  3
ObjectDBX Classes
 90
        0
 91
        1
280
     0
281
     0
  0
CLASS
  1
MATERIAL
  2
AcDbMaterial
  3
ObjectDBX Classes
 90
     1153
 91
        3
280
     0
281
     0
  0
CLASS
  1
VISUALSTYLE
  2
AcDbVisualStyle
  3
ObjectDBX Classes
 90
     4095
 91
       25
280
     0
281
     0
  0
CLASS
  1
SCALE
  2
AcDbScale
  3
ObjectDBX Classes
 90
     1153
 91
       17
280
     0
281
     0
  0
CLASS
  1
TABLESTYLE
  2
AcDbTableStyle
  3
ObjectDBX Classes
 90
     4095
 91
        1
280
     0
281
     0
  0
CLASS
  1
MLEADERSTYLE
  2
AcDbMLeaderStyle
  3
ACDB_MLEADERSTYLE_CLASS
 90
     4095
 91
        1
280
     0
281
     0
  0
CLASS
  1
ACDBSECTIONVIEWSTYLE
  2
AcDbSectionViewStyle
  3
ObjectDBX Classes
 90
     1025
 91
        1
280
     0
281
     0
  0
CLASS
  1
ACDBDETAILVIEWSTYLE
  2
AcDbDetailViewStyle
  3
ObjectDBX Classes
 90
     1025
 91
        1
280
     0
281
     0
  0
CLASS
  1
RASTERVARIABLES
  2
AcDbRasterVariables
  3
ISM
 90
        0
 91
        1
280
     0
281
     0
  0
CLASS
  1
DICTIONARYVAR
  2
AcDbDictionaryVar
  3
ObjectDBX Classes
 90
        0
 91
        6
280
     0
281
     0
  0
CLASS
  1
SORTENTSTABLE
  2
AcDbSortentsTable
  3
ObjectDBX Classes
 90
        0
 91
        5
280
     0
281
     0
  0
CLASS
  1
SOLID_BACKGROUND
  2
AcDbSolidBackground
  3
SCENEOE
 90
     4095
 91
        1
280
     0
281
     0
  0
CLASS
  1
NPOCOLLECTION
  2
AcDbImpNonPersistentObjectsCollection
  3
ObjectDBX Classes
 90
     1153
 91
        1
280
     0
281
     0
  0
CLASS
  1
CELLSTYLEMAP
  2
AcDbCellStyleMap
  3
ObjectDBX Classes
 90
     1152
 91
        4
280
     0
281
     0
  0
CLASS
  1
ACAD_EVALUATION_GRAPH
  2
AcDbEvalGraph
  3
ObjectDBX Classes
 90
     1153
 91
        2
280
     0
281
     0
  0
CLASS
  1
ACAECUSTOBJ
  2
AcAeEditorObj
  3
AcAeEditorObj
 90
     1024
 91
        1
280
     0
281
     0
  0
CLASS
  1
ACDB_DYNAMICBLOCKPURGEPREVENTER_VERSION
  2
AcDbDynamicBlockPurgePreventer
  3
ObjectDBX Classes
 90
     1153
 91
        2
280
     0
281
     0
  0
CLASS
  1
MULTILEADER
  2
AcDbMLeader
  3
ACDB_MLEADER_CLASS
 90
     1025
 91
        8
280
     0
281
     1
  0
ENDSEC
  0
SECTION
  2
TABLES
  0
TABLE
  2
VPORT
  5
8
330
0
100
AcDbSymbolTable
 70
     1
  0
VPORT
  5
57
330
8
100
AcDbSymbolTableRecord
100
AcDbViewportTableRecord
  2
*Active
 70
     0
 10
0.0
 20
0.0
 11
1.0
 21
1.0
 12
0.0
 22
0.0
 13
0.0
 23
0.0
 14
1.0
 24
1.0
 15
0.0
 25
0.0
 16
-0.0000000000000515
 26
0.0
 36
232.1270917733817
 17
1.448368703318088
 27
10.21074398336694
 37
0.0
 40
79.27704918498251
 41
2.207496653279785
 42
50.0
 43
0.0
 44
0.0
 50
0.0
 51
0.0
 71
     0
 72
  1000
 73
     1
 74
     1
 75
     0
 76
     0
 77
     0
 78
     0
281
     0
 65
     1
110
0.0
120
0.0
130
0.0
111
1.0
121
0.0
131
0.0
112
0.0
122
1.0
132
0.0
 79
     0
146
0.0
348
2F
 60
     3
 61
     5
292
     1
282
     1
141
0.0
142
0.0
 63
   250
421
  3355443
1001
ACAD_NAV_VCDISPLAY
1070
     3
  0
ENDTAB
  0
TABLE
  2
LTYPE
  5
5
330
0
100
AcDbSymbolTable
 70
     6
  0
LTYPE
  5
5B
330
5
100
AcDbSymbolTableRecord
100
AcDbLinetypeTableRecord
  2
ByBlock
 70
     0
  3

 72
    65
 73
     0
 40
0.0
  0
LTYPE
  5
5C
330
5
100
AcDbSymbolTableRecord
100
AcDbLinetypeTableRecord
  2
ByLayer
 70
     0
  3

 72
    65
 73
     0
 40
0.0
  0
LTYPE
  5
5D
330
5
100
AcDbSymbolTableRecord
100
AcDbLinetypeTableRecord
  2
Continuous
 70
     0
  3
Solid line
 72
    65
 73
     0
 40
0.0
  0
LTYPE
  5
1A6
330
5
100
AcDbSymbolTableRecord
100
AcDbLinetypeTableRecord
  2
DASHED
 70
     0
  3
Dashed __ __ __ __ __ __ __ __ __ __ __ __ __ _
 72
    65
 73
     2
 40
0.75
 49
0.5
 74
     0
 49
-0.25
 74
     0
  0
LTYPE
  5
2E2
330
5
100
AcDbSymbolTableRecord
100
AcDbLinetypeTableRecord
  2
CENTER2
 70
     0
  3
Center (.5x) ___ _ ___ _ ___ _ ___ _ ___ _ ___
 72
    65
 73
     4
 40
1.125
 49
0.75
 74
     0
 49
-0.125
 74
     0
 49
0.125
 74
     0
 49
-0.125
 74
     0
  0
LTYPE
  5
535
330
5
100
AcDbSymbolTableRecord
100
AcDbLinetypeTableRecord
  2
PHANTOM2
 70
     0
  3
___ _ _ ___ _ _ ___ _ _ ___ _ _
 72
    65
 73
     6
 40
1.25
 49
0.625
 74
     0
 49
-0.125
 74
     0
 49
0.125
 74
     0
 49
-0.125
 74
     0
 49
0.125
 74
     0
 49
-0.125
 74
     0
  0
ENDTAB
  0
TABLE
  2
LAYER
  5
2
102
{ACAD_XDICTIONARY
360
2E9
102
}
330
0
100
AcDbSymbolTable
 70
     6
  0
LAYER
  5
54
330
2
100
AcDbSymbolTableRecord
100
AcDbLayerTableRecord
  2
0
 70
     0
 62
     7
  6
Continuous
370
    -3
390
F
347
21
  0
LAYER
  5
8A
330
2
100
AcDbSymbolTableRecord
100
AcDbLayerTableRecord
  2
0484.000
 70
     0
 62
   255
  6
Continuous
370
     9
390
F
347
21
  0
LAYER
  5
2E3
102
{ACAD_XDICTIONARY
360
2E4
102
}
330
2
100
AcDbSymbolTableRecord
100
AcDbLayerTableRecord
  2
Cut Outline
 70
     0
 62
     3
  6
CENTER2
370
    -3
390
F
347
21
  0
LAYER
  5
37A
102
{ACAD_XDICTIONARY
360
37B
102
}
330
2
100
AcDbSymbolTableRecord
100
AcDbLayerTableRecord
  2
DIM
 70
     0
 62
   171
  6
Continuous
370
    -3
390
F
347
21
  0
LAYER
  5
37C
330
2
100
AcDbSymbolTableRecord
100
AcDbLayerTableRecord
  2
DEFPOINTS
 70
     0
 62
     7
  6
Continuous
290
     0
370
    -3
390
F
347
21
  0
LAYER
  5
37D
102
{ACAD_XDICTIONARY
360
37E
102
}
330
2
100
AcDbSymbolTableRecord
100
AcDbLayerTableRecord
  2
text
 70
     0
 62
   171
  6
Continuous
370
    -3
390
F
347
21
  0
ENDTAB
  0
TABLE
  2
STYLE
  5
3
330
0
100
AcDbSymbolTable
 70
     3
  0
STYLE
  5
55
330
3
100
AcDbSymbolTableRecord
100
AcDbTextStyleTableRecord
  2
Standard
 70
     0
 40
0.0
 41
1.0
 50
0.0
 71
     0
 42
0.2
  3
txt
  4

  0
STYLE
  5
5A
330
3
100
AcDbSymbolTableRecord
100
AcDbTextStyleTableRecord
  2
Annotative
 70
     0
 40
0.0
 41
1.0
 50
0.0
 71
     0
 42
0.2
  3
txt
  4

1001
AcadAnnotative
1000
AnnotativeData
1002
{
1070
     1
1070
     1
1002
}
  0
STYLE
  5
1A5
330
3
100
AcDbSymbolTableRecord
100
AcDbTextStyleTableRecord
  2

 70
     1
 40
0.0
 41
1.0
 50
0.0
 71
     0
 42
0.2
  3
ltypeshp.shx
  4

  0
ENDTAB
  0
TABLE
  2
VIEW
  5
6
330
0
100
AcDbSymbolTable
 70
     1
  0
ENDTAB
  0
TABLE
  2
UCS
  5
7
330
0
100
AcDbSymbolTable
 70
     0
  0
ENDTAB
  0
TABLE
  2
APPID
  5
9
330
0
100
AcDbSymbolTable
 70
    13
  0
APPID
  5
56
330
9
100
AcDbSymbolTableRecord
100
AcDbRegAppTableRecord
  2
ACAD
 70
     0
  0
APPID
  5
5E
330
9
100
AcDbSymbolTableRecord
100
AcDbRegAppTableRecord
  2
AcadAnnotative
 70
     0
  0
APPID
  5
78
330
9
100
AcDbSymbolTableRecord
100
AcDbRegAppTableRecord
  2
REVIT
 70
     0
  0
APPID
  5
1A7
330
9
100
AcDbSymbolTableRecord
100
AcDbRegAppTableRecord
  2
ACAD_NAV_VCDISPLAY
 70
     0
  0
APPID
  5
2E5
330
9
100
AcDbSymbolTableRecord
100
AcDbRegAppTableRecord
  2
ACAD_PSEXT
 70
     0
  0
APPID
  5
2E6
330
9
100
AcDbSymbolTableRecord
100
AcDbRegAppTableRecord
  2
ACAD_DSTYLE_DIMJAG
 70
     0
  0
APPID
  5
2E7
330
9
100
AcDbSymbolTableRecord
100
AcDbRegAppTableRecord
  2
ACAD_DSTYLE_DIMTALN
 70
     0
  0
APPID
  5
30E
330
9
100
AcDbSymbolTableRecord
100
AcDbRegAppTableRecord
  2
ACAUTHENVIRON
 70
     0
  0
APPID
  5
312
330
9
100
AcDbSymbolTableRecord
100
AcDbRegAppTableRecord
  2
AcDbDynamicBlockTrueName
 70
     0
  0
APPID
  5
313
330
9
100
AcDbSymbolTableRecord
100
AcDbRegAppTableRecord
  2
AcDbDynamicBlockGUID
 70
     0
  0
APPID
  5
4A5
330
9
100
AcDbSymbolTableRecord
100
AcDbRegAppTableRecord
  2
AcadAnnoMonitorAlertIconDisabled
 70
     0
  0
APPID
  5
4A6
330
9
100
AcDbSymbolTableRecord
100
AcDbRegAppTableRecord
  2
ACAD_EXEMPT_FROM_CAD_STANDARDS
 70
     0
  0
APPID
  5
6CB
330
9
100
AcDbSymbolTableRecord
100
AcDbRegAppTableRecord
  2
ACAD_MLEADERVER
 70
     0
  0
ENDTAB
  0
TABLE
  2
DIMSTYLE
  5
A
330
0
100
AcDbSymbolTable
 70
     3
100
AcDbDimStyleTable
 71
     1
340
58
  0
DIMSTYLE
105
58
102
{ACAD_REACTORS
330
392
330
393
330
394
330
395
330
396
330
397
330
39E
102
}
330
A
100
AcDbSymbolTableRecord
100
AcDbDimStyleTableRecord
  2
Standard
 70
     0
340
55
  0
DIMSTYLE
105
59
330
A
100
AcDbSymbolTableRecord
100
AcDbDimStyleTableRecord
  2
Annotative
 70
     0
340
55
1001
AcadAnnotative
1000
AnnotativeData
1002
{
1070
     1
1070
     1
1002
}
  0
ENDTAB
  0
TABLE
  2
BLOCK_RECORD
  5
1
330
0
100
AcDbSymbolTable
 70
    27
  0
BLOCK_RECORD
  5
70
102
{ACAD_XDICTIONARY
360
111
102
}
330
1
100
AcDbSymbolTableRecord
100
AcDbBlockTableRecord
  2
*Model_Space
340
73
 70
     0
280
     1
281
     0
  0
BLOCK_RECORD
  5
6C
330
1
100
AcDbSymbolTableRecord
100
AcDbBlockTableRecord
  2
*Paper_Space
340
6F
 70
     0
280
     1
281
     0
  0
BLOCK_RECORD
  5
74
330
1
100
AcDbSymbolTableRecord
100
AcDbBlockTableRecord
  2
*Paper_Space0
340
77
 70
     0
280
     1
281
     0
  0
BLOCK_RECORD
  5
86
330
1
100
AcDbSymbolTableRecord
100
AcDbBlockTableRecord
  2
FamilyGeomCombination_18450-Front
340
0
 70
     0
280
     1
281
     0
  0
BLOCK_RECORD
  5
8B
330
1
100
AcDbSymbolTableRecord
100
AcDbBlockTableRecord
  2
FamilyGeomCombination_18508-Front
340
0
 70
     0
280
     1
281
     0
  0
BLOCK_RECORD
  5
1E2
330
1
100
AcDbSymbolTableRecord
100
AcDbBlockTableRecord
  2
AMSTD_Estate_0484.000_Front View
340
0
310
2800000020000000200000000100080000000000000400000000000000000000000000000000000000000000000080000080000000808000800000008000800080800000C0C0C000C0DCC000F0CAA6000020400000206000002080000020A0000020C0000020E00000400000004020000040400000406000004080000040A0
310
000040C0000040E00000600000006020000060400000606000006080000060A0000060C0000060E00000800000008020000080400000806000008080000080A0000080C0000080E00000A0000000A0200000A0400000A0600000A0800000A0A00000A0C00000A0E00000C0000000C0200000C0400000C0600000C0800000C0
310
A00000C0C00000C0E00000E0000000E0200000E0400000E0600000E0800000E0A00000E0C00000E0E00040000000400020004000400040006000400080004000A0004000C0004000E00040200000402020004020400040206000402080004020A0004020C0004020E000404000004040200040404000404060004040800040
310
40A0004040C0004040E00040600000406020004060400040606000406080004060A0004060C0004060E00040800000408020004080400040806000408080004080A0004080C0004080E00040A0000040A0200040A0400040A0600040A0800040A0A00040A0C00040A0E00040C0000040C0200040C0400040C0600040C08000
310
40C0A00040C0C00040C0E00040E0000040E0200040E0400040E0600040E0800040E0A00040E0C00040E0E00080000000800020008000400080006000800080008000A0008000C0008000E00080200000802020008020400080206000802080008020A0008020C0008020E00080400000804020008040400080406000804080
310
008040A0008040C0008040E00080600000806020008060400080606000806080008060A0008060C0008060E00080800000808020008080400080806000808080008080A0008080C0008080E00080A0000080A0200080A0400080A0600080A0800080A0A00080A0C00080A0E00080C0000080C0200080C0400080C0600080C0
310
800080C0A00080C0C00080C0E00080E0000080E0200080E0400080E0600080E0800080E0A00080E0C00080E0E000C0000000C0002000C0004000C0006000C0008000C000A000C000C000C000E000C0200000C0202000C0204000C0206000C0208000C020A000C020C000C020E000C0400000C0402000C0404000C0406000C0
310
408000C040A000C040C000C040E000C0600000C0602000C0604000C0606000C0608000C060A000C060C000C060E000C0800000C0802000C0804000C0806000C0808000C080A000C080C000C080E000C0A00000C0A02000C0A04000C0A06000C0A08000C0A0A000C0A0C000C0A0E000C0C00000C0C02000C0C04000C0C06000
310
C0C08000C0C0A000F0FBFF00A4A0A000808080000000FF0000FF000000FFFF00FF000000FF00FF00FFFF0000FFFFFF0049494949494949494949494949494949494949494949494949494949494949494949494949494949494949494949494949494949494949494949494949494949494949494949494949494949494949
310
49494949494949494949494949494949494949494949494949494949494949494949494949494949494949494949494949494949494949494949494949494949494949494949494949494949494949494949494949494949494949494949494949494949494949494949494949494949494949494949494949494949494949
310
4949494949494949494949494949494949494949494949494949494949494949494949494949494949494949494949494949494949494949494949494949494949494949494949494949494949494949494949494949494949494949494949494949494949494949494949494949494949494949494949FDFDFDFDFDFDFDFD
310
FDFDFDFDFDFDFDFDFDFDFDFDFDFD49494949494949494949FD49494949494949FD49494949FD49494949494949FD494949494949494949FD494949FDFDFDFDFDFD49494949FDFDFDFDFDFD494949FD4949494949494949FD4949FDFD4949494949494949494949494949FDFD4949FD4949494949494949FD49FD4949494949
310
49494949494949494949494949FD4949FD494949494949FD4949FD494949494949494949494949494949494949FD4949FD494949494949FD49FD4949494949494949494949494949494949494949FD49FD4949494949FD49FDFDFDFD49494949494949494949494949494949FDFDFDFD49FD49494949FDFDFD4949FD494949
310
49494949494949494949494949FD4949FDFDFD49494949FDFDFD4949FD49494949494949494949494949494949FD4949FDFDFD494949FDFDFDFD4949FDFDFDFDFDFDFDFDFDFDFDFDFDFDFDFDFDFD4949FDFDFDFD494949FDFDFDFDFDFDFDFDFDFDFDFDFDFDFDFDFDFDFDFDFDFDFDFDFDFDFDFD494949494949494949494949
310
49494949494949494949494949494949494949494949494949494949494949494949494949494949494949494949494949494949494949494949494949494949494949494949494949494949494949494949494949494949494949494949494949494949494949494949494949494949494949494949494949494949494949
310
49494949494949494949494949494949494949494949494949494949494949494949494949494949494949494949494949494949494949494949494949494949494949494949494949494949494949494949494949494949494949494949494949494949494949494949494949494949494949494949494949494949494949
310
4949494949494949494949494949494949494949494949494949494949494949494949494949494949494949494949494949494949494949
102
{BLKREFS
331
22F
102
}
 70
     1
280
     1
281
     1
  0
BLOCK_RECORD
  5
230
330
1
100
AcDbSymbolTableRecord
100
AcDbBlockTableRecord
  2
AMSTD_Estate_0484.000_Side View
340
0
310
2800000020000000200000000100080000000000000400000000000000000000000000000000000000000000000080000080000000808000800000008000800080800000C0C0C000C0DCC000F0CAA6000020400000206000002080000020A0000020C0000020E00000400000004020000040400000406000004080000040A0
310
000040C0000040E00000600000006020000060400000606000006080000060A0000060C0000060E00000800000008020000080400000806000008080000080A0000080C0000080E00000A0000000A0200000A0400000A0600000A0800000A0A00000A0C00000A0E00000C0000000C0200000C0400000C0600000C0800000C0
310
A00000C0C00000C0E00000E0000000E0200000E0400000E0600000E0800000E0A00000E0C00000E0E00040000000400020004000400040006000400080004000A0004000C0004000E00040200000402020004020400040206000402080004020A0004020C0004020E000404000004040200040404000404060004040800040
310
40A0004040C0004040E00040600000406020004060400040606000406080004060A0004060C0004060E00040800000408020004080400040806000408080004080A0004080C0004080E00040A0000040A0200040A0400040A0600040A0800040A0A00040A0C00040A0E00040C0000040C0200040C0400040C0600040C08000
310
40C0A00040C0C00040C0E00040E0000040E0200040E0400040E0600040E0800040E0A00040E0C00040E0E00080000000800020008000400080006000800080008000A0008000C0008000E00080200000802020008020400080206000802080008020A0008020C0008020E00080400000804020008040400080406000804080
310
008040A0008040C0008040E00080600000806020008060400080606000806080008060A0008060C0008060E00080800000808020008080400080806000808080008080A0008080C0008080E00080A0000080A0200080A0400080A0600080A0800080A0A00080A0C00080A0E00080C0000080C0200080C0400080C0600080C0
310
800080C0A00080C0C00080C0E00080E0000080E0200080E0400080E0600080E0800080E0A00080E0C00080E0E000C0000000C0002000C0004000C0006000C0008000C000A000C000C000C000E000C0200000C0202000C0204000C0206000C0208000C020A000C020C000C020E000C0400000C0402000C0404000C0406000C0
310
408000C040A000C040C000C040E000C0600000C0602000C0604000C0606000C0608000C060A000C060C000C060E000C0800000C0802000C0804000C0806000C0808000C080A000C080C000C080E000C0A00000C0A02000C0A04000C0A06000C0A08000C0A0A000C0A0C000C0A0E000C0C00000C0C02000C0C04000C0C06000
310
C0C08000C0C0A000F0FBFF00A4A0A000808080000000FF0000FF000000FFFF00FF000000FF00FF00FFFF0000FFFFFF0049494949494949494949494949494949494949494949494949494949494949494949494949494949494949494949494949494949494949494949494949494949494949494949494949494949494949
310
49494949494949494949494949494949494949494949494949494949494949494949494949494949494949494949494949494949494949494949494949494949494949494949494949494949494949494949494949494949494949494949494949494949494949494949494949494949494949494949494949494949494949
310
49494949494949494949494949494949494949494949494949494949494949494949494949494949494949494949494949494949494949494949494949494949494949494949494949494949494949494949494949494949FDFDFDFDFDFDFDFDFDFDFDFDFDFDFDFDFDFDFDFDFD4949494949494949494949FD494949494949
310
494949494949494949494949FDFD49494949494949494949FD4949494949494949494949494949494949494949FDFD494949494949494949FD4949494949494949494949494949494949494949FDFD4949494949494949FD49494949494949494949494949494949494949494949FD4949494949494949FD49494949494949
310
494949494949494949494949494949FD4949494949494949FD49494949494949494949494949494949494949494949FDFD494949494949FD494949494949494949494949494949494949494949494949FD494949494949FD49FDFDFDFD4949494949494949494949494949FDFDFDFD49FD4949494949FD4949FD4949FD4949
310
494949494949494949494949FD4949FD4949FD49494949FD49FD49494949FD494949494949494949494949FD49494949FD49FD49494949FD49FD49494949FD494949494949494949494949FD49494949FD49FD494949FDFDFDFD494949FDFDFDFDFDFDFDFDFDFDFDFDFDFDFDFD494949FDFDFDFD494949FDFDFDFDFDFDFDFD
310
FDFDFDFDFDFDFDFDFDFDFDFDFDFDFDFDFDFDFDFD4949494949494949494949494949494949494949494949494949494949494949494949494949494949494949494949494949494949494949494949494949494949494949494949494949494949494949494949494949494949494949494949494949494949494949494949
310
49494949494949494949494949494949494949494949494949494949494949494949494949494949494949494949494949494949494949494949494949494949494949494949494949494949494949494949494949494949494949494949494949494949494949494949494949494949494949494949494949494949494949
310
4949494949494949494949494949494949494949494949494949494949494949494949494949494949494949494949494949494949494949
102
{BLKREFS
331
289
102
}
 70
     1
280
     1
281
     1
  0
BLOCK_RECORD
  5
28A
102
{ACAD_XDICTIONARY
360
30F
102
}
330
1
100
AcDbSymbolTableRecord
100
AcDbBlockTableRecord
  2
AMSTD_Estate_0484.000_Plan View
340
0
310
2800000020000000200000000100080000000000000400000000000000000000000000000000000000000000000080000080000000808000800000008000800080800000C0C0C000C0DCC000F0CAA6000020400000206000002080000020A0000020C0000020E00000400000004020000040400000406000004080000040A0
310
000040C0000040E00000600000006020000060400000606000006080000060A0000060C0000060E00000800000008020000080400000806000008080000080A0000080C0000080E00000A0000000A0200000A0400000A0600000A0800000A0A00000A0C00000A0E00000C0000000C0200000C0400000C0600000C0800000C0
310
A00000C0C00000C0E00000E0000000E0200000E0400000E0600000E0800000E0A00000E0C00000E0E00040000000400020004000400040006000400080004000A0004000C0004000E00040200000402020004020400040206000402080004020A0004020C0004020E000404000004040200040404000404060004040800040
310
40A0004040C0004040E00040600000406020004060400040606000406080004060A0004060C0004060E00040800000408020004080400040806000408080004080A0004080C0004080E00040A0000040A0200040A0400040A0600040A0800040A0A00040A0C00040A0E00040C0000040C0200040C0400040C0600040C08000
310
40C0A00040C0C00040C0E00040E0000040E0200040E0400040E0600040E0800040E0A00040E0C00040E0E00080000000800020008000400080006000800080008000A0008000C0008000E00080200000802020008020400080206000802080008020A0008020C0008020E00080400000804020008040400080406000804080
310
008040A0008040C0008040E00080600000806020008060400080606000806080008060A0008060C0008060E00080800000808020008080400080806000808080008080A0008080C0008080E00080A0000080A0200080A0400080A0600080A0800080A0A00080A0C00080A0E00080C0000080C0200080C0400080C0600080C0
310
800080C0A00080C0C00080C0E00080E0000080E0200080E0400080E0600080E0800080E0A00080E0C00080E0E000C0000000C0002000C0004000C0006000C0008000C000A000C000C000C000E000C0200000C0202000C0204000C0206000C0208000C020A000C020C000C020E000C0400000C0402000C0404000C0406000C0
310
408000C040A000C040C000C040E000C0600000C0602000C0604000C0606000C0608000C060A000C060C000C060E000C0800000C0802000C0804000C0806000C0808000C080A000C080C000C080E000C0A00000C0A02000C0A04000C0A06000C0A08000C0A0A000C0A0C000C0A0E000C0C00000C0C02000C0C04000C0C06000
310
C0C08000C0C0A000F0FBFF00A4A0A000808080000000FF0000FF000000FFFF00FF000000FF00FF00FFFF0000FFFFFF0049494949494949494949494949494949494949494949494949494949494949494949494949494949494949494949494949494949494949494949494949494949494949494949494949494949494949
310
4949494949494949494949494949494949494949494949494949494949494949494949494949494949494949494949494949494949494949494949FDFDFDFDFDFDFDFDFDFDFDFD494949494949494949494949494949494949FDFDFD49494949494949494949FDFDFD4949494949494949494949494949FDFD494949FDFDFD
310
FDFDFDFDFDFD49494949FDFD4949494949494949494949FDFD4949FDFDFD4949494949494949FDFDFD4949FDFD494949494949494949FD494949FDFD494949494949494949494949FDFDFD4949FD4949494949494949FD49FDFD49494949FDFDFDFDFDFDFDFD49494949FD4949FD49494949494949FD4949FD494949FDFD49
310
49FDFDFDFD49FDFDFD494949FDFD49FD4949494949FDFD49FD494949FDFDFDFDFDFD4949FDFDFDFD49FD494949FD49FDFD49494949FD49FDFD4949FD49FDFD4949494949494949FDFD49FD4949FDFD49FD49494949FD49FD4949FD49FD494949494949494949494949FDFDFD4949FD49FD49494949FD49FD4949FDFDFD4949
310
494949FDFD4949494949FDFDFD4949FD49FD494949FD4949FD4949FDFD4949494949FDFDFDFD4949494949FDFD4949FD4949FD4949FD4949FD4949FDFD4949494949FDFDFDFD4949494949FDFD4949FD4949FD494949FD49FD4949FDFDFD4949494949FDFD4949494949FDFDFD4949FD49FD49494949FD49FD4949FD49FD49
310
4949494949494949494949FDFDFD4949FD49FD49494949FD49FDFD4949FD49FDFD4949494949494949FDFD49FD4949FDFD49FD49494949FDFD49FD494949FDFDFDFDFDFD4949FDFDFDFD49FD494949FD49FDFD4949494949FD4949FD494949FDFD4949FDFDFDFD49FDFDFD494949FDFD49FD49494949494949FD49FDFD4949
310
4949FDFDFDFDFDFDFDFD49494949FD4949FD4949494949494949FD494949FDFD494949494949494949494949FDFDFD4949FD494949494949494949FDFD4949FDFDFD4949494949494949FDFDFD4949FDFD4949494949494949494949FDFD494949FDFDFDFDFDFDFDFDFD49494949FDFD4949494949494949494949494949FD
310
FDFD49494949494949494949FDFDFD494949494949494949494949494949494949FDFDFDFDFDFDFDFDFDFDFDFD49494949494949494949494949494949494949494949494949494949494949494949494949494949494949494949494949494949494949494949494949494949494949494949494949494949494949494949
310
4949494949494949494949494949494949494949494949494949494949494949494949494949494949494949494949494949494949494949
102
{BLKREFS
331
2A5
102
}
 70
     1
280
     1
281
     1
1001
AcDbDynamicBlockGUID
1000
{2EF4C3F8-A558-41DD-B19A-AFBE3312F5C2}
  0
BLOCK_RECORD
  5
31F
330
1
100
AcDbSymbolTableRecord
100
AcDbBlockTableRecord
  2
*D11
340
0
 70
     0
280
     1
281
     0
  0
BLOCK_RECORD
  5
32C
330
1
100
AcDbSymbolTableRecord
100
AcDbBlockTableRecord
  2
*D12
340
0
 70
     0
280
     1
281
     0
  0
BLOCK_RECORD
  5
339
330
1
100
AcDbSymbolTableRecord
100
AcDbBlockTableRecord
  2
*D13
340
0
 70
     0
280
     1
281
     0
  0
BLOCK_RECORD
  5
346
330
1
100
AcDbSymbolTableRecord
100
AcDbBlockTableRecord
  2
*D14
340
0
 70
     0
280
     1
281
     0
  0
BLOCK_RECORD
  5
353
330
1
100
AcDbSymbolTableRecord
100
AcDbBlockTableRecord
  2
*D15
340
0
 70
     0
280
     1
281
     0
  0
BLOCK_RECORD
  5
360
330
1
100
AcDbSymbolTableRecord
100
AcDbBlockTableRecord
  2
*D16
340
0
 70
     0
280
     1
281
     0
  0
BLOCK_RECORD
  5
36D
330
1
100
AcDbSymbolTableRecord
100
AcDbBlockTableRecord
  2
*D17
340
0
 70
     0
280
     1
281
     0
  0
BLOCK_RECORD
  5
39F
330
1
100
AcDbSymbolTableRecord
100
AcDbBlockTableRecord
  2
*D19
340
0
 70
     0
280
     1
281
     0
  0
BLOCK_RECORD
  5
3AC
330
1
100
AcDbSymbolTableRecord
100
AcDbBlockTableRecord
  2
*D20
340
0
 70
     0
280
     1
281
     0
  0
BLOCK_RECORD
  5
3B9
330
1
100
AcDbSymbolTableRecord
100
AcDbBlockTableRecord
  2
*D21
340
0
 70
     0
280
     1
281
     0
  0
BLOCK_RECORD
  5
3C6
330
1
100
AcDbSymbolTableRecord
100
AcDbBlockTableRecord
  2
*D22
340
0
 70
     0
280
     1
281
     0
  0
BLOCK_RECORD
  5
3D3
330
1
100
AcDbSymbolTableRecord
100
AcDbBlockTableRecord
  2
*D23
340
0
 70
     0
280
     1
281
     0
  0
BLOCK_RECORD
  5
3E0
330
1
100
AcDbSymbolTableRecord
100
AcDbBlockTableRecord
  2
*D24
340
0
 70
     0
280
     1
281
     0
  0
BLOCK_RECORD
  5
3ED
330
1
100
AcDbSymbolTableRecord
100
AcDbBlockTableRecord
  2
*D25
340
0
 70
     0
280
     1
281
     0
  0
ENDTAB
  0
ENDSEC
  0
SECTION
  2
BLOCKS
  0
BLOCK
  5
71
330
70
100
AcDbEntity
  8
0
100
AcDbBlockBegin
  2
*Model_Space
 70
     0
 10
0.0
 20
0.0
 30
0.0
  3
*Model_Space
  1

  0
ENDBLK
  5
72
330
70
100
AcDbEntity
  8
0
100
AcDbBlockEnd
  0
BLOCK
  5
6D
330
6C
100
AcDbEntity
 67
     1
  8
0
100
AcDbBlockBegin
  2
*Paper_Space
 70
     0
 10
0.0
 20
0.0
 30
0.0
  3
*Paper_Space
  1

  0
ENDBLK
  5
6E
330
6C
100
AcDbEntity
 67
     1
  8
0
100
AcDbBlockEnd
  0
BLOCK
  5
75
330
74
100
AcDbEntity
 67
     1
  8
0
100
AcDbBlockBegin
  2
*Paper_Space0
 70
     0
 10
0.0
 20
0.0
 30
0.0
  3
*Paper_Space0
  1

  0
ENDBLK
  5
76
330
74
100
AcDbEntity
 67
     1
  8
0
100
AcDbBlockEnd
  0
BLOCK
  5
87
330
86
100
AcDbEntity
  8
0
100
AcDbBlockBegin
  2
FamilyGeomCombination_18450-Front
 70
     0
 10
0.0
 20
0.0
 30
0.0
  3
FamilyGeomCombination_18450-Front
  1

  0
LINE
  5
90
330
86
100
AcDbEntity
  8
0484.000
100
AcDbLine
 10
1.250000000000241
 20
-1.62883242776533
 30
0.0
 11
1.25000000000024
 21
-1.711210731973985
 31
0.0
1001
REVIT
1002
{
1070
     2
1000
-2001160
1002
}
  0
LINE
  5
91
330
86
100
AcDbEntity
  8
0484.000
100
AcDbLine
 10
1.25000000000024
 20
-1.711210731973987
 30
0.0
 11
1.25000000000024
 21
-1.78544332465715
 31
0.0
1001
REVIT
1002
{
1070
     2
1000
-2001160
1002
}
  0
LINE
  5
92
330
86
100
AcDbEntity
  8
0484.000
100
AcDbLine
 10
1.25000000000024
 20
-1.785443324657144
 30
0.0
 11
1.250000000000236
 21
-2.120461177707054
 31
0.0
1001
REVIT
1002
{
1070
     2
1000
-2001160
1002
}
  0
LINE
  5
93
330
86
100
AcDbEntity
  8
0484.000
100
AcDbLine
 10
1.250000000000236
 20
-2.120461177707058
 30
0.0
 11
1.250000000000183
 21
-7.312738821532775
 31
0.0
1001
REVIT
1002
{
1070
     2
1000
-2001160
1002
}
  0
LINE
  5
94
330
86
100
AcDbEntity
  8
0484.000
100
AcDbLine
 10
1.250000000000183
 20
-7.312738821532768
 30
0.0
 11
1.250000000000176
 21
-7.951792871036584
 31
0.0
1001
REVIT
1002
{
1070
     2
1000
-2001160
1002
}
  0
LINE
  5
95
330
86
100
AcDbEntity
  8
0484.000
100
AcDbLine
 10
1.250000000000176
 20
-7.951792871036585
 30
0.0
 11
1.250000000000174
 21
-8.181570950075016
 31
0.0
1001
REVIT
1002
{
1070
     2
1000
-2001160
1002
}
  0
LINE
  5
96
330
86
100
AcDbEntity
  8
0484.000
100
AcDbLine
 10
1.250000000000174
 20
-8.181570950075016
 30
0.0
 11
1.250000000000174
 21
-8.243638354303756
 31
0.0
1001
REVIT
1002
{
1070
     2
1000
-2001160
1002
}
  0
LINE
  5
97
330
86
100
AcDbEntity
  8
0484.000
100
AcDbLine
 10
1.250000000000173
 20
-8.243638354303756
 30
0.0
 11
1.250000000000173
 21
-8.299002876327909
 31
0.0
1001
REVIT
1002
{
1070
     2
1000
-2001160
1002
}
  0
LINE
  5
98
330
86
100
AcDbEntity
  8
0484.000
100
AcDbLine
 10
-1.288656804245804
 20
-8.299002876327882
 30
0.0
 11
-1.288656804245804
 21
-8.24363835430373
 31
0.0
1001
REVIT
1002
{
1070
     2
1000
-2001160
1002
}
  0
LINE
  5
99
330
86
100
AcDbEntity
  8
0484.000
100
AcDbLine
 10
-1.288656804245804
 20
-8.243638354303731
 30
0.0
 11
-1.288656804245803
 21
-8.18157095007499
 31
0.0
1001
REVIT
1002
{
1070
     2
1000
-2001160
1002
}
  0
LINE
  5
9A
330
86
100
AcDbEntity
  8
0484.000
100
AcDbLine
 10
-1.288656804245803
 20
-8.18157095007499
 30
0.0
 11
-1.288656804245801
 21
-7.951792871036558
 31
0.0
1001
REVIT
1002
{
1070
     2
1000
-2001160
1002
}
  0
LINE
  5
9B
330
86
100
AcDbEntity
  8
0484.000
100
AcDbLine
 10
-1.288656804245801
 20
-7.951792871036557
 30
0.0
 11
-1.288656804245794
 21
-7.312738821532748
 31
0.0
1001
REVIT
1002
{
1070
     2
1000
-2001160
1002
}
  0
LINE
  5
9C
330
86
100
AcDbEntity
  8
0484.000
100
AcDbLine
 10
-1.288656804245794
 20
-7.312738821532748
 30
0.0
 11
-1.288656804245741
 21
-2.120461177707032
 31
0.0
1001
REVIT
1002
{
1070
     2
1000
-2001160
1002
}
  0
LINE
  5
9D
330
86
100
AcDbEntity
  8
0484.000
100
AcDbLine
 10
-1.288656804245741
 20
-2.120461177707033
 30
0.0
 11
-1.288656804245738
 21
-1.785443324657124
 31
0.0
1001
REVIT
1002
{
1070
     2
1000
-2001160
1002
}
  0
LINE
  5
9E
330
86
100
AcDbEntity
  8
0484.000
100
AcDbLine
 10
-1.288656804245738
 20
-1.785443324657123
 30
0.0
 11
-1.288656804245737
 21
-1.71121073197396
 31
0.0
1001
REVIT
1002
{
1070
     2
1000
-2001160
1002
}
  0
LINE
  5
9F
330
86
100
AcDbEntity
  8
0484.000
100
AcDbLine
 10
-1.288656804245737
 20
-1.71121073197396
 30
0.0
 11
-1.288656804245736
 21
-1.628537720756926
 31
0.0
1001
REVIT
1002
{
1070
     2
1000
-2001160
1002
}
  0
LINE
  5
A0
330
86
100
AcDbEntity
  8
0484.000
100
AcDbLine
 10
1.250000000000173
 20
-8.299002876327909
 30
0.0
 11
-1.288656804245804
 21
-8.299002876327882
 31
0.0
1001
REVIT
1002
{
1070
     2
1000
-2001160
1002
}
  0
ENDBLK
  5
88
330
86
100
AcDbEntity
  8
0
100
AcDbBlockEnd
  0
BLOCK
  5
8C
330
8B
100
AcDbEntity
  8
0
100
AcDbBlockBegin
  2
FamilyGeomCombination_18508-Front
 70
     0
 10
0.0
 20
0.0
 30
0.0
  3
FamilyGeomCombination_18508-Front
  1

  0
LWPOLYLINE
  5
A1
330
8B
100
AcDbEntity
  8
0484.000
100
AcDbPolyline
 90
        9
 70
   128
 43
0.0
 10
-9.068807623123078
 20
-0.7508285964130291
 10
-9.088881524526877
 20
-0.7529316217445212
 10
-9.105859189028693
 20
-0.7579769819135348
 10
-9.119789236070321
 20
-0.7647123306793486
 10
-9.141324768593756
 20
-0.7813702248137426
 10
-9.15407914749873
 20
-0.7971092669183175
 10
-9.161448120893131
 20
-0.8103211611531721
 10
-9.168697095477581
 20
-0.8318778568186095
 10
-9.171034086786262
 20
-0.8532849648721892
1001
REVIT
1002
{
1070
     2
1000
-2001160
1002
}
  0
LWPOLYLINE
  5
A2
330
8B
100
AcDbEntity
  8
0484.000
100
AcDbPolyline
 90
       10
 70
   128
 43
0.0
 10
0.0000000000006581
 20
-0.7508266771258475
 10
-2.034274157375171
 20
-0.7508266771258475
 10
-3.963054735389154
 20
-0.7508266771258475
 10
-5.686271774446002
 20
-0.7508266771258475
 10
-7.117083805496848
 20
-0.7508266771258475
 10
-8.18632979977186
 20
-0.7508266771258475
 10
-8.845047669459669
 20
-0.7508266771258475
 10
-9.068179567224401
 20
-0.7508266771258475
 10
-8.845047669459642
 20
-0.7508266771258475
 10
-8.807291667142733
 20
-0.7508266771258475
1001
REVIT
1002
{
1070
     2
1000
-2001160
1002
}
  0
LINE
  5
A3
330
8B
100
AcDbEntity
  8
0484.000
100
AcDbLine
 10
-4.915764125858248
 20
-6.586596859900564
 30
0.0
 11
-3.523760930948088
 21
-6.683935205535818
 31
0.0
1001
REVIT
1002
{
1070
     2
1000
-2001160
1002
}
  0
LWPOLYLINE
  5
A4
330
8B
100
AcDbEntity
  8
0484.000
100
AcDbPolyline
 90
       80
 70
   128
 43
0.0
 10
-4.811512610666466
 20
-6.593637407041192
 10
-4.839737002001291
 20
-6.593637407041192
 10
-4.86161000343529
 20
-6.593637407041192
 10
-4.891633153321063
 20
-6.593637407041192
 10
-4.909834735586894
 20
-6.593637407041191
 10
-5.002169797513331
 20
-6.593637407041192
 10
-5.00252751368907
 20
-6.593637407041192
 10
-5.001151364121651
 20
-6.593637407041192
 10
-4.933237139549788
 20
-6.593637407041192
 10
-4.917233136860848
 20
-6.593637407041192
 10
-4.899688756052955
 20
-6.593637407041192
 10
-4.708711693527825
 20
-6.593637407041192
 10
-4.678998820275441
 20
-6.593637407041192
 10
-4.648132787192317
 20
-6.593637407041192
 10
-4.616149264644429
 20
-6.593637407041192
 10
-4.583083026301861
 20
-6.593637407041192
 10
-4.548967986900926
 20
-6.593637407041192
 10
-4.513837231847974
 20
-6.593637407041192
 10
-4.477723040321297
 20
-6.593637407041192
 10
-4.440656903267661
 20
-6.593637407041192
 10
-4.402669537467152
 20
-6.593637407041192
 10
-4.363790915291317
 20
-6.593637407041192
 10
-4.324051168860652
 20
-6.593637407041192
 10
-4.283480419961041
 20
-6.593637407041192
 10
-4.242107097416793
 20
-6.593637407041193
 10
-4.199957990257157
 20
-6.593637407041192
 10
-4.15705841922246
 20
-6.593637407041192
 10
-4.113432386810449
 20
-6.593637407041192
 10
-4.069102708890435
 20
-6.593637407041192
 10
-4.02409113042591
 20
-6.593637407041192
 10
-3.978418427446601
 20
-6.593637407041192
 10
-3.932104497081304
 20
-6.593637407041192
 10
-3.885168437190301
 20
-6.593637407041192
 10
-3.837628616909246
 20
-6.593637407041192
 10
-3.78950293658569
 20
-6.593637407041192
 10
-3.74081069299966
 20
-6.593637407041192
 10
-3.691571366567495
 20
-6.593637407041192
 10
-3.64180331564555
 20
-6.593637407041192
 10
-3.591523867761458
 20
-6.593637407041192
 10
-3.540749417964843
 20
-6.593637407041193
 10
-3.489495516796761
 20
-6.593637407041192
 10
-3.437776949159149
 20
-6.593637407041192
 10
-3.38560780518568
 20
-6.593637407041193
 10
-3.333001544062503
 20
-6.593637407041192
 10
-3.279971051618455
 20
-6.593637407041193
 10
-3.226528692394018
 20
-6.593637407041192
 10
-3.172686356804634
 20
-6.593637407041192
 10
-3.118455503933649
 20
-6.593637407041192
 10
-3.063847203575968
 20
-6.593637407041191
 10
-3.008872859050099
 20
-6.593637407041192
 10
-2.953544938760127
 20
-6.593637407041192
 10
-2.897875505470736
 20
-6.593637407041192
 10
-2.841876048784344
 20
-6.593637407041192
 10
-2.785557533701802
 20
-6.593637407041192
 10
-2.728930445052353
 20
-6.593637407041192
 10
-2.672004828223288
 20
-6.593637407041193
 10
-2.6147903265701
 20
-6.593637407041192
 10
-2.557296215844549
 20
-6.593637407041193
 10
-2.499531435939999
 20
-6.593637407041192
 10
-2.441504620219853
 20
-6.593637407041192
 10
-2.383224122665513
 20
-6.593637407041192
 10
-2.324698043054389
 20
-6.593637407041193
 10
-2.265934250355408
 20
-6.593637407041192
 10
-2.206940404509403
 20
-6.593637407041192
 10
-2.147723977385031
 20
-6.593637407041192
 10
-2.088292607651688
 20
-6.593637407041192
 10
-2.028654582544071
 20
-6.593637407041192
 10
-1.968818025027521
 20
-6.593637407041193
 10
-1.908790772248331
 20
-6.593637407041193
 10
-1.848580398844278
 20
-6.593637407041192
 10
-1.788194238792863
 20
-6.593637407041192
 10
-1.727639405929491
 20
-6.593637407041192
 10
-1.66692281325608
 20
-6.593637407041193
 10
-1.606051191150234
 20
-6.593637407041192
 10
-1.545031104575528
 20
-6.593637407041193
 10
-1.483868969384907
 20
-6.593637407041193
 10
-1.422571067801331
 20
-6.593637407041192
 10
-1.361143563152887
 20
-6.593637407041193
 10
-1.29959251393297
 20
-6.593637407041192
 10
-1.28865680424579
 20
-6.593637407041192
1001
REVIT
1002
{
1070
     2
1000
-2001160
1002
}
  0
LWPOLYLINE
  5
A5
330
8B
100
AcDbEntity
  8
0484.000
100
AcDbPolyline
 90
        8
 70
   128
 43
0.0
 10
-5.492210156268903
 20
-6.280095068687395
 10
-5.446554962595562
 20
-6.360327218465032
 10
-5.387869310200241
 20
-6.431603648715732
 10
-5.317871893759636
 20
-6.491826437114702
 10
-5.238616237333361
 20
-6.539222434997015
 10
-5.160411138672469
 20
-6.570019882712525
 10
-5.036050895231393
 20
-6.592598552875169
 10
-4.915764125858245
 20
-6.586596859900564
1001
REVIT
1002
{
1070
     2
1000
-2001160
1002
}
  0
LWPOLYLINE
  5
A6
330
8B
100
AcDbEntity
  8
0484.000
100
AcDbPolyline
 90
        5
 70
   128
 43
0.0
 10
-5.846918289216157
 20
-5.982459605155772
 10
-5.759692975291256
 20
-6.013565797371319
 10
-5.679026041799605
 20
-6.059061798145783
 10
-5.568580582118395
 20
-6.159293146641842
 10
-5.492210156268905
 20
-6.280095068687395
1001
REVIT
1002
{
1070
     2
1000
-2001160
1002
}
  0
LWPOLYLINE
  5
A7
330
8B
100
AcDbEntity
  8
0484.000
100
AcDbPolyline
 90
        6
 70
   128
 43
0.0
 10
-6.56733491383249
 20
-5.182355885965874
 10
-6.498127232429209
 20
-5.422838004124048
 10
-6.370291793306708
 20
-5.638061904510872
 10
-6.192215396058396
 20
-5.813896002295242
 10
-6.024014668147059
 20
-5.917129337943946
 10
-5.846918289216155
 20
-5.982459605155773
1001
REVIT
1002
{
1070
     2
1000
-2001160
1002
}
  0
LWPOLYLINE
  5
A8
330
8B
100
AcDbEntity
  8
0484.000
100
AcDbPolyline
 90
        5
 70
   128
 43
0.0
 10
-7.291266499658306
 20
-3.761560150357099
 10
-7.029587999441719
 20
-4.06525217503579
 10
-6.818879248504238
 20
-4.406296741900605
 10
-6.664378575981806
 20
-4.776220742050743
 10
-6.567334913832487
 20
-5.182355885965883
1001
REVIT
1002
{
1070
     2
1000
-2001160
1002
}
  0
LWPOLYLINE
  5
A9
330
8B
100
AcDbEntity
  8
0484.000
100
AcDbPolyline
 90
        3
 70
   128
 43
0.0
 10
-8.529665404884944
 20
-1.942877872166311
 10
-7.93859076046348
 20
-2.997756253676757
 10
-7.291266499658293
 20
-3.761560150357115
1001
REVIT
1002
{
1070
     2
1000
-2001160
1002
}
  0
LWPOLYLINE
  5
AA
330
8B
100
AcDbEntity
  8
0484.000
100
AcDbPolyline
 90
        6
 70
   128
 43
0.0
 10
-8.733610726293884
 20
-1.651231968028567
 10
-8.67505475408338
 20
-1.676471313698841
 10
-8.628279398196527
 20
-1.711847997971322
 10
-8.599375569108513
 20
-1.744656426713896
 10
-8.567428959511422
 20
-1.802166498483634
 10
-8.551631183730638
 20
-1.862945641263547
1001
REVIT
1002
{
1070
     2
1000
-2001160
1002
}
  0
LWPOLYLINE
  5
AB
330
8B
100
AcDbEntity
  8
0484.000
100
AcDbPolyline
 90
        8
 70
   128
 43
0.0
 10
-9.517922221873551
 20
-1.258162220473298
 10
-9.510010634241423
 20
-1.336209131138134
 10
-9.486566589288623
 20
-1.411154462610244
 10
-9.448517045246868
 20
-1.479904942982741
 10
-9.397934854492222
 20
-1.539117679437807
 10
-9.353043316059633
 20
-1.576073054099506
 10
-9.276379330388811
 20
-1.618083657098259
 10
-9.196528417030279
 20
-1.641184442032782
1001
REVIT
1002
{
1070
     2
1000
-2001160
1002
}
  0
LWPOLYLINE
  5
AC
330
8B
100
AcDbEntity
  8
0484.000
100
AcDbPolyline
 90
        9
 70
   128
 43
0.0
 10
-9.360533561277053
 20
-1.082451935883955
 10
-9.386464683967705
 20
-1.087293528469802
 10
-9.411416890304973
 20
-1.095953162151335
 10
-9.434377572007855
 20
-1.107970314200786
 10
-9.469685792334157
 20
-1.136805902116305
 10
-9.490505833423441
 20
-1.16360282714983
 10
-9.502493351106556
 20
-1.185935156555998
 10
-9.514222414627177
 20
-1.222185049341333
 10
-9.517922221873549
 20
-1.258162220473296
1001
REVIT
1002
{
1070
     2
1000
-2001160
1002
}
  0
LWPOLYLINE
  5
AD
330
8B
100
AcDbEntity
  8
0484.000
100
AcDbPolyline
 90
        9
 70
   128
 43
0.0
 10
9.171034086787733
 20
-0.8532849648721892
 10
9.168976845903962
 20
-0.8332095965448377
 10
9.163940900016601
 20
-0.8161458782419352
 10
9.157191543670986
 20
-0.8021454025533232
 10
9.140462663662056
 20
-0.7805084485602157
 10
9.124642614136824
 20
-0.7677102629167192
 10
9.111360361600169
 20
-0.7603299467534771
 10
9.089690182040291
 20
-0.7531012262618769
 10
9.068807623124548
 20
-0.7508285964130291
1001
REVIT
1002
{
1070
     2
1000
-2001160
1002
}
  0
LWPOLYLINE
  5
AE
330
8B
100
AcDbEntity
  8
0484.000
100
AcDbPolyline
 90
       10
 70
   128
 43
0.0
 10
8.807291667144204
 20
-0.7508266771258475
 10
8.845047669461136
 20
-0.7508266771258475
 10
9.068179567225874
 20
-0.7508266771258475
 10
8.845047669461118
 20
-0.7508266771258475
 10
8.186329799773291
 20
-0.7508266771258475
 10
7.117083805498261
 20
-0.7508266771258475
 10
5.686271774447401
 20
-0.7508266771258475
 10
3.963054735390546
 20
-0.7508266771258475
 10
2.03427415737656
 20
-0.7508266771258475
 10
0.0000000000007221
 20
-0.7508266771258475
1001
REVIT
1002
{
1070
     2
1000
-2001160
1002
}
  0
LINE
  5
AF
330
8B
100
AcDbEntity
  8
0484.000
100
AcDbLine
 10
4.915764125859725
 20
-6.586596859900564
 30
0.0
 11
3.523760930949564
 21
-6.683935205535818
 31
0.0
1001
REVIT
1002
{
1070
     2
1000
-2001160
1002
}
  0
LWPOLYLINE
  5
B0
330
8B
100
AcDbEntity
  8
0484.000
100
AcDbPolyline
 90
        7
 70
   128
 43
0.0
 10
5.007809652860929
 20
-6.59361223774894
 10
5.09971709193139
 20
-6.584816900924238
 10
5.188786104773015
 20
-6.560462568613127
 10
5.272398368439664
 20
-6.521260157266957
 10
5.341662345921033
 20
-6.473646906319229
 10
5.429922277430361
 20
-6.383173424099231
 10
5.492210156270374
 20
-6.280095068687395
1001
REVIT
1002
{
1070
     2
1000
-2001160
1002
}
  0
LWPOLYLINE
  5
B1
330
8B
100
AcDbEntity
  8
0484.000
100
AcDbPolyline
 90
       42
 70
   128
 43
0.0
 10
1.250000000000189
 20
-6.593637407041192
 10
1.293022523575058
 20
-6.593637407041192
 10
1.354586391426058
 20
-6.593637407041192
 10
1.416027354830359
 20
-6.593637407041192
 10
1.477339365661871
 20
-6.593637407041192
 10
1.538516272421118
 20
-6.593637407041192
 10
1.599551806243003
 20
-6.593637407041192
 10
1.660439566236884
 20
-6.593637407041192
 10
2.425086774402181
 20
-6.593637407041192
 10
2.483185994605396
 20
-6.593637407041192
 10
2.541025562788388
 20
-6.593637407041192
 10
2.598596927051282
 20
-6.593637407041191
 10
2.655891236832959
 20
-6.593637407041192
 10
3.088448860789598
 20
-6.593637407041192
 10
3.142888777051584
 20
-6.593637407041192
 10
3.196946312197732
 20
-6.593637407041192
 10
3.887545088190801
 20
-6.593637407041193
 10
3.934450272696057
 20
-6.593637407041192
 10
3.980732384085717
 20
-6.593637407041191
 10
4.02637228598937
 20
-6.593637407041193
 10
4.071350038983217
 20
-6.593637407041193
 10
4.115644820466846
 20
-6.593637407041192
 10
4.159234834067773
 20
-6.593637407041192
 10
4.202097207022535
 20
-6.593637407041193
 10
4.244207873707751
 20
-6.593637407041192
 10
4.285541443161982
 20
-6.593637407041192
 10
4.326071048035395
 20
-6.593637407041192
 10
4.365768171912479
 20
-6.593637407041192
 10
4.404602634777439
 20
-6.593637407041191
 10
4.442544345885814
 20
-6.593637407041192
 10
4.479563301100783
 20
-6.593637407041192
 10
4.839737002002432
 20
-6.593637407041192
 10
4.861610003436457
 20
-6.593637407041192
 10
4.891633153322299
 20
-6.593637407041192
 10
4.90983473558815
 20
-6.593637407041192
 10
5.002169797514805
 20
-6.593637407041192
 10
5.002527513690491
 20
-6.593637407041192
 10
5.001151364123148
 20
-6.593637407041192
 10
4.933237139551462
 20
-6.593637407041192
 10
4.91723313686254
 20
-6.593637407041192
 10
4.899688756054668
 20
-6.593637407041193
 10
4.811512610667927
 20
-6.593637407041192
1001
REVIT
1002
{
1070
     2
1000
-2001160
1002
}
  0
LWPOLYLINE
  5
B2
330
8B
100
AcDbEntity
  8
0484.000
100
AcDbPolyline
 90
        5
 70
   128
 43
0.0
 10
5.492210156270374
 20
-6.280095068687395
 10
5.537990292340491
 20
-6.199596436867514
 10
5.596802772633057
 20
-6.128055312978846
 10
5.714690034532035
 20
-6.036692759011292
 10
5.846918289217631
 20
-5.982459605155772
1001
REVIT
1002
{
1070
     2
1000
-2001160
1002
}
  0
LWPOLYLINE
  5
B3
330
8B
100
AcDbEntity
  8
0484.000
100
AcDbPolyline
 90
        6
 70
   128
 43
0.0
 10
5.846918289217629
 20
-5.982459605155773
 10
6.078848848587202
 20
-5.888493824418041
 10
6.279531287925825
 20
-5.738861657640755
 10
6.435788095976108
 20
-5.543381113497469
 10
6.52087414500149
 20
-5.365310984839502
 10
6.567334913833963
 20
-5.182355885965874
1001
REVIT
1002
{
1070
     2
1000
-2001160
1002
}
  0
LWPOLYLINE
  5
B4
330
8B
100
AcDbEntity
  8
0484.000
100
AcDbPolyline
 90
        5
 70
   128
 43
0.0
 10
6.567334913833961
 20
-5.182355885965883
 10
6.659216159585875
 20
-4.792147838882994
 10
6.811275513688779
 20
-4.421219911733389
 10
7.019737099659594
 20
-4.078790370262936
 10
7.291266499659782
 20
-3.761560150357099
1001
REVIT
1002
{
1070
     2
1000
-2001160
1002
}
  0
LWPOLYLINE
  5
B5
330
8B
100
AcDbEntity
  8
0484.000
100
AcDbPolyline
 90
        3
 70
   128
 43
0.0
 10
7.291266499659768
 20
-3.761560150357115
 10
8.056190841191362
 20
-2.825051187229901
 10
8.52966540488642
 20
-1.942877872166311
1001
REVIT
1002
{
1070
     2
1000
-2001160
1002
}
  0
LWPOLYLINE
  5
B6
330
8B
100
AcDbEntity
  8
0484.000
100
AcDbPolyline
 90
        6
 70
   128
 43
0.0
 10
8.551631183732109
 20
-1.862945641263547
 10
8.567789376001814
 20
-1.801263072624248
 10
8.595739308117119
 20
-1.74970490156272
 10
8.623834341881094
 20
-1.716201268770016
 10
8.675893798810642
 20
-1.675979295124827
 10
8.733610726295355
 20
-1.651231968028567
1001
REVIT
1002
{
1070
     2
1000
-2001160
1002
}
  0
LWPOLYLINE
  5
B7
330
8B
100
AcDbEntity
  8
0484.000
100
AcDbPolyline
 90
        8
 70
   128
 43
0.0
 10
9.196528417031753
 20
-1.641184442032782
 10
9.272079689034427
 20
-1.619814795418479
 10
9.341826204148347
 20
-1.583689631326799
 10
9.402911103737247
 20
-1.534268107366369
 10
9.452415408919595
 20
-1.474179509217081
 10
9.480998759231534
 20
-1.423562579103424
 10
9.509043560420765
 20
-1.340788960067204
 10
9.517922221875025
 20
-1.258162220473298
1001
REVIT
1002
{
1070
     2
1000
-2001160
1002
}
  0
LWPOLYLINE
  5
B8
330
8B
100
AcDbEntity
  8
0484.000
100
AcDbPolyline
 90
        9
 70
   128
 43
0.0
 10
9.517922221875025
 20
-1.258162220473296
 10
9.515953839651334
 20
-1.231856525002809
 10
9.510083085847682
 20
-1.206105095792506
 10
9.500656646971384
 20
-1.18196494049574
 10
9.475867449782827
 20
-1.143707166700194
 10
9.451515621972951
 20
-1.120073762702249
 10
9.430632747448694
 20
-1.105709255453029
 10
9.395887921628755
 20
-1.090075230483077
 10
9.360533561278526
 20
-1.082451935883955
1001
REVIT
1002
{
1070
     2
1000
-2001160
1002
}
  0
LINE
  5
B9
330
8B
100
AcDbEntity
  8
0484.000
100
AcDbLine
 10
-8.551631183730638
 20
-1.862945641263547
 30
0.0
 11
-8.529665404884955
 21
-1.942877872166281
 31
0.0
1001
REVIT
1002
{
1070
     2
1000
-2001160
1002
}
  0
LWPOLYLINE
  5
BA
330
8B
100
AcDbEntity
  8
0484.000
100
AcDbPolyline
 90
        3
 70
   128
 43
0.0
 10
-8.803863643242621
 20
-1.6411852153768
 10
-8.768082682227264
 20
-1.643796648559492
 10
-8.733610726293884
 20
-1.651231968028567
1001
REVIT
1002
{
1070
     2
1000
-2001160
1002
}
  0
LINE
  5
BB
330
8B
100
AcDbEntity
  8
0484.000
100
AcDbLine
 10
8.55163118373211
 20
-1.862945641263547
 30
0.0
 11
8.529665404886429
 21
-1.942877872166281
 31
0.0
1001
REVIT
1002
{
1070
     2
1000
-2001160
1002
}
  0
LWPOLYLINE
  5
BC
330
8B
100
AcDbEntity
  8
0484.000
100
AcDbPolyline
 90
        3
 70
   128
 43
0.0
 10
8.803863643244095
 20
-1.6411852153768
 10
8.768082682228738
 20
-1.643796648559493
 10
8.733610726295356
 20
-1.651231968028567
1001
REVIT
1002
{
1070
     2
1000
-2001160
1002
}
  0
LWPOLYLINE
  5
BD
330
8B
100
AcDbEntity
  8
0484.000
100
AcDbPolyline
 90
        6
 70
   128
 43
0.0
 10
-9.290763000648603
 20
-1.059604378479307
 10
-9.241688719825381
 20
-1.02210596514578
 10
-9.21146840737677
 20
-0.9854459421635217
 10
-9.19397269184982
 20
-0.9545842310726621
 10
-9.176699681821903
 20
-0.9041238876512512
 10
-9.171034086786262
 20
-0.8532849648721894
1001
REVIT
1002
{
1070
     2
1000
-2001160
1002
}
  0
LWPOLYLINE
  5
BE
330
8B
100
AcDbEntity
  8
0484.000
100
AcDbPolyline
 90
        6
 70
   128
 43
0.0
 10
9.290763000650075
 20
-1.059604378479307
 10
9.241688719826886
 20
-1.022105965145806
 10
9.211468407378259
 20
-0.985445942163545
 10
9.193972691851303
 20
-0.9545842310726815
 10
9.176699681823379
 20
-0.9041238876512627
 10
9.171034086787733
 20
-0.8532849648721894
1001
REVIT
1002
{
1070
     2
1000
-2001160
1002
}
  0
LWPOLYLINE
  5
BF
330
8B
100
AcDbEntity
  8
0484.000
100
AcDbPolyline
 90
        3
 70
   128
 43
0.0
 10
-9.290763000648603
 20
-1.059604378479306
 10
-9.324907126105783
 20
-1.074788475903314
 10
-9.360533561277053
 20
-1.082451935883955
1001
REVIT
1002
{
1070
     2
1000
-2001160
1002
}
  0
LWPOLYLINE
  5
C0
330
8B
100
AcDbEntity
  8
0484.000
100
AcDbPolyline
 90
        3
 70
   128
 43
0.0
 10
9.290763000650075
 20
-1.059604378479306
 10
9.324907126107257
 20
-1.074788475903314
 10
9.360533561278526
 20
-1.082451935883955
1001
REVIT
1002
{
1070
     2
1000
-2001160
1002
}
  0
LINE
  5
C1
330
8B
100
AcDbEntity
  8
0484.000
100
AcDbLine
 10
1.746358058644429
 20
-6.69525163074986
 30
0.0
 11
1.875705390721199
 21
-6.683935205535818
 31
0.0
1001
REVIT
1002
{
1070
     2
1000
-2001160
1002
}
  0
LINE
  5
C2
330
8B
100
AcDbEntity
  8
0484.000
100
AcDbLine
 10
-1.875705390720433
 20
-6.68393520553582
 30
0.0
 11
-1.7463580586441
 21
-6.695251630749824
 31
0.0
1001
REVIT
1002
{
1070
     2
1000
-2001160
1002
}
  0
LINE
  5
C3
330
8B
100
AcDbEntity
  8
0484.000
100
AcDbLine
 10
1.42326630711094
 20
-8.136824286092467
 30
0.0
 11
1.484610954087882
 21
-6.966298692065072
 31
0.0
1001
REVIT
1002
{
1070
     2
1000
-2001160
1002
}
  0
LINE
  5
C4
330
8B
100
AcDbEntity
  8
0484.000
100
AcDbLine
 10
-1.484610954087561
 20
-6.966298692065041
 30
0.0
 11
-1.423266307110643
 21
-8.136824286092441
 31
0.0
1001
REVIT
1002
{
1070
     2
1000
-2001160
1002
}
  0
LWPOLYLINE
  5
C5
330
8B
100
AcDbEntity
  8
0484.000
100
AcDbPolyline
 90
       38
 70
   128
 43
0.0
 10
-1.143234262192354
 20
-8.416856331010748
 10
-1.155039504639364
 20
-8.416000611088351
 10
-1.166801084481627
 20
-8.414673491865254
 10
-1.178500185700401
 20
-8.412877096449106
 10
-1.19011809222941
 20
-8.410614298689365
 10
-1.201636217896562
 20
-8.407888718579744
 10
-1.213036136157858
 20
-8.404704716466989
 10
-1.224299609575933
 20
-8.401067386075265
 10
-1.235408618996065
 20
-8.396982546357273
 10
-1.246345392372979
 20
-8.392456732185182
 10
-1.257092433202322
 20
-8.387497183896208
 10
-1.267632548511351
 20
-8.382111835709629
 10
-1.277948876364006
 20
-8.376309303033737
 10
-1.288024912836423
 20
-8.370098868683003
 10
-1.297844538419687
 20
-8.363490468027567
 10
-1.307392043807606
 20
-8.356494673098758
 10
-1.316652155028252
 20
-8.34912267567611
 10
-1.325610057879055
 20
-8.341386269382885
 10
-1.334251421626373
 20
-8.333297830818814
 10
-1.342562421931602
 20
-8.324870299760149
 10
-1.350529762967177
 20
-8.316117158458814
 10
-1.358140698687043
 20
-8.307052410073652
 10
-1.36538305321763
 20
-8.297690556268365
 10
-1.372245240336645
 20
-8.288046574011959
 10
-1.378716282008551
 20
-8.278135891618767
 10
-1.384785825947087
 20
-8.267974364066452
 10
-1.39044416217672
 20
-8.257578247631421
 10
-1.395682238566529
 20
-8.246964173882254
 10
-1.40049167531169
 20
-8.236149123072729
 10
-1.404864778339362
 20
-8.225150396977058
 10
-1.408794551617589
 20
-8.213985591210722
 10
-1.412274708347424
 20
-8.202672567081249
 10
-1.415299681020498
 20
-8.191229423013931
 10
-1.417864630325829
 20
-8.1796744655982
 10
-1.419965452891683
 20
-8.168026180300996
 10
-1.421598787850111
 20
-8.156303201893958
 10
-1.422762022213601
 20
-8.144524284641772
 10
-1.423266307110643
 20
-8.136824286092441
1001
REVIT
1002
{
1070
     2
1000
-2001160
1002
}
  0
LWPOLYLINE
  5
C6
330
8B
100
AcDbEntity
  8
0484.000
100
AcDbPolyline
 90
       38
 70
   128
 43
0.0
 10
1.42326630711094
 20
-8.136824286092471
 10
1.422410587188544
 20
-8.148629528539482
 10
1.421083467965447
 20
-8.160391108381745
 10
1.419287072549302
 20
-8.172090209600519
 10
1.417024274789562
 20
-8.183708116129526
 10
1.414298694679943
 20
-8.19522624179668
 10
1.411114692567187
 20
-8.206626160057975
 10
1.407477362175463
 20
-8.217889633476049
 10
1.403392522457471
 20
-8.228998642896183
 10
1.398866708285381
 20
-8.239935416273096
 10
1.393907159996406
 20
-8.25068245710244
 10
1.388521811809829
 20
-8.261222572411467
 10
1.382719279133938
 20
-8.271538900264125
 10
1.376508844783205
 20
-8.281614936736541
 10
1.369900444127766
 20
-8.291434562319803
 10
1.362904649198961
 20
-8.300982067707726
 10
1.355532651776311
 20
-8.310242178928371
 10
1.347796245483088
 20
-8.319200081779174
 10
1.339707806919014
 20
-8.327841445526493
 10
1.33128027586035
 20
-8.336152445831725
 10
1.322527134559017
 20
-8.344119786867297
 10
1.313462386173853
 20
-8.351730722587163
 10
1.304100532368568
 20
-8.358973077117751
 10
1.294456550112162
 20
-8.365835264236768
 10
1.284545867718969
 20
-8.372306305908672
 10
1.274384340166655
 20
-8.378375849847207
 10
1.263988223731625
 20
-8.38403418607684
 10
1.253374149982459
 20
-8.389272262466654
 10
1.242559099172933
 20
-8.39408169921181
 10
1.231560373077262
 20
-8.398454802239486
 10
1.220395567310926
 20
-8.402384575517711
 10
1.209082543181453
 20
-8.405864732247547
 10
1.197639399114134
 20
-8.408889704920623
 10
1.186084441698403
 20
-8.411454654225956
 10
1.174436156401199
 20
-8.41355547679181
 10
1.162713177994164
 20
-8.415188811750235
 10
1.150934260741978
 20
-8.416352046113727
 10
1.143234262192647
 20
-8.41685633101077
1001
REVIT
1002
{
1070
     2
1000
-2001160
1002
}
  0
LWPOLYLINE
  5
C7
330
8B
100
AcDbEntity
  8
0484.000
100
AcDbPolyline
 90
       37
 70
   128
 43
0.0
 10
-1.484610954087558
 20
-6.966298692065044
 10
-1.485441354401688
 20
-6.954842750956506
 10
-1.486729205941549
 20
-6.943429180534621
 10
-1.488472448419406
 20
-6.932076240077303
 10
-1.490668293019164
 20
-6.920802091867449
 10
-1.493313226857887
 20
-6.909624772137174
 10
-1.496403018605654
 20
-6.898562162213678
 10
-1.499932725254793
 20
-6.88763195991294
 10
-1.503896700027623
 20
-6.87685165122699
 10
-1.508288601410115
 20
-6.866238482350049
 10
-1.513101403296945
 20
-6.855809432088297
 10
-1.51832740623177
 20
-6.845581184697408
 10
-1.523958249724717
 20
-6.835570103191299
 10
-1.529984925627375
 20
-6.825792203164794
 10
-1.536397792543928
 20
-6.816263127172097
 10
-1.543186591255311
 20
-6.806998119702034
 10
-1.550340461131789
 20
-6.798012002790126
 10
-1.557847957507633
 20
-6.789319152306498
 10
-1.565697069990157
 20
-6.780933474957548
 10
-1.573875241673779
 20
-6.772868386038186
 10
-1.582369389228386
 20
-6.765136787970219
 10
-1.591165923829881
 20
-6.757751049661239
 10
-1.600250772899393
 20
-6.750722986717001
 10
-1.609609402616411
 20
-6.744063842538973
 10
-1.619226841169789
 20
-6.737784270337299
 10
-1.629087702709452
 20
-6.731894316087932
 10
-1.639176211960472
 20
-6.726403402461215
 10
-1.649476229460151
 20
-6.721320313747615
 10
-1.659971277377709
 20
-6.716653181804743
 10
-1.670644565875303
 20
-6.712409473048104
 10
-1.681479019968181
 20
-6.708595976506434
 10
-1.692457306841023
 20
-6.705218792960693
 10
-1.70356186357674
 20
-6.702283325184132
 10
-1.714774925253404
 20
-6.699794269298991
 10
-1.726078553364321
 20
-6.697755607263717
 10
-1.73745466451583
 20
-6.696170600502674
 10
-1.746358058644097
 20
-6.695251630749825
1001
REVIT
1002
{
1070
     2
1000
-2001160
1002
}
  0
LWPOLYLINE
  5
C8
330
8B
100
AcDbEntity
  8
0484.000
100
AcDbPolyline
 90
       37
 70
   128
 43
0.0
 10
1.746358058644424
 20
-6.695251630749861
 10
1.734938076738704
 20
-6.696481331785498
 10
1.723576404526107
 20
-6.6981667266643
 10
1.712291218258476
 20
-6.700305119113993
 10
1.701100571826464
 20
-6.702893088162825
 10
1.69002236787715
 20
-6.705926493612387
 10
1.679074329173629
 20
-6.709400482661052
 10
1.668273970242372
 20
-6.713309497667421
 10
1.657638569353711
 20
-6.71764728504136
 10
1.647185140880307
 20
-6.722406905248421
 10
1.636930408077771
 20
-6.727580743911598
 10
1.626890776331027
 20
-6.733160523992729
 10
1.617082306909196
 20
-6.73913731903397
 10
1.607520691270987
 20
-6.745501567438237
 10
1.598221225961727
 20
-6.75224308776572
 10
1.589198788142125
 20
-6.759351095022006
 10
1.580467811788007
 20
-6.766814217911781
 10
1.572042264599033
 20
-6.774620517030467
 10
1.563935625653355
 20
-6.782757503964732
 10
1.556160863843953
 20
-6.791212161271277
 10
1.548730417131204
 20
-6.799970963301977
 10
1.541656172644762
 20
-6.809019897842027
 10
1.534949447666723
 20
-6.818344488526498
 10
1.528620971526353
 20
-6.827929817999438
 10
1.52268086843548
 20
-6.837760551778448
 10
1.517138641291886
 20
-6.847820962786595
 10
1.512003156476729
 20
-6.858094956512373
 10
1.507282629670201
 20
-6.868566096757488
 10
1.502984612708197
 20
-6.879217631931271
 10
1.499115981501001
 20
-6.890032521849653
 10
1.495682925033272
 20
-6.900993464995816
 10
1.49269093546302
 20
-6.912082926198936
 10
1.490144799335293
 20
-6.923283164686715
 10
1.488048589924756
 20
-6.934576262466828
 10
1.486405660719294
 20
-6.945944152991893
 10
1.485218640055164
 20
-6.95736865006209
 10
1.484610954087882
 20
-6.966298692065075
1001
REVIT
1002
{
1070
     2
1000
-2001160
1002
}
  0
SPLINE
  5
C9
330
8B
100
AcDbEntity
  8
0484.000
100
AcDbSpline
210
0.0
220
0.0
230
1.0
 70
    24
 71
     3
 72
    14
 73
    10
 74
     0
 42
0.000000001
 43
0.0000000001
 40
4.712388980384685
 40
4.712388980384685
 40
4.712388980384685
 40
4.712388980384685
 40
4.908738521234047
 40
5.105088062083408
 40
5.30143760293277
 40
5.497787143782132
 40
5.694136684631494
 40
5.890486225480856
 40
5.985999418863982
 40
5.985999418863982
 40
5.985999418863982
 40
5.985999418863982
 10
-3.523760930948082
 20
-6.683935205535812
 30
0.0
 10
-3.523760930948079
 20
-6.683935205535812
 30
0.0
 10
-3.511310302728867
 20
-6.683935205535812
 30
0.0
 10
-3.432975956517345
 20
-6.683935205535812
 30
0.0
 10
-3.244419718127582
 20
-6.683935205535812
 30
0.0
 10
-2.898419928391481
 20
-6.683935205535814
 30
0.0
 10
-2.376824462711267
 20
-6.683935205535814
 30
0.0
 10
-1.804255467455471
 20
-6.683935205535813
 30
0.0
 10
-1.423031999106811
 20
-6.683935205535812
 30
0.0
 10
-1.293520021264811
 20
-6.683935205535812
 30
0.0
1001
REVIT
1002
{
1070
     2
1000
-2001160
1002
}
  0
SPLINE
  5
CA
330
8B
100
AcDbEntity
  8
0484.000
100
AcDbSpline
210
0.0
220
0.0
230
1.0
 70
    24
 71
     3
 72
    14
 73
    10
 74
     0
 42
0.000000001
 43
0.0000000001
 40
0.5
 40
0.5
 40
0.5
 40
0.5
 40
0.5714285714285714
 40
0.625
 40
0.6785714285714287
 40
0.7321428571428572
 40
0.7857142857142857
 40
0.8928571428571427
 40
0.9555115810241122
 40
0.9555115810241122
 40
0.9555115810241122
 40
0.9555115810241122
 10
-9.19652841703027
 20
-1.641184442032781
 30
0.0
 10
-9.196496072863151
 20
-1.641184442032781
 30
0.0
 10
-9.062053509133409
 20
-1.641184442032781
 30
0.0
 10
-8.546484222807867
 20
-1.641184442032781
 30
0.0
 10
-7.840316253157928
 20
-1.641184442032781
 30
0.0
 10
-6.912377262517969
 20
-1.641184442032781
 30
0.0
 10
-5.408902590088737
 20
-1.641184442032781
 30
0.0
 10
-3.500210603257932
 20
-1.641184442032783
 30
0.0
 10
-1.885411362049018
 20
-1.641184442032781
 30
0.0
 10
-1.283904533428144
 20
-1.641184442032781
 30
0.0
1001
REVIT
1002
{
1070
     2
1000
-2001160
1002
}
  0
SPLINE
  5
CB
330
8B
100
AcDbEntity
  8
0484.000
100
AcDbSpline
210
0.0
220
0.0
230
1.0
 70
    24
 71
     3
 72
     8
 73
     4
 74
     0
 42
0.000000001
 43
0.0000000001
 40
0.9659869189752974
 40
0.9659869189752974
 40
0.9659869189752974
 40
0.9659869189752974
 40
1.0
 40
1.0
 40
1.0
 40
1.0
 10
-0.9869389086132336
 20
-1.641184442032781
 30
0.0
 10
-0.6592351455753115
 20
-1.641184442032781
 30
0.0
 10
-0.3296105244654485
 20
-1.641184442032781
 30
0.0
 10
0.0000000000006583
 20
-1.641184442032781
 30
0.0
1001
REVIT
1002
{
1070
     2
1000
-2001160
1002
}
  0
SPLINE
  5
CC
330
8B
100
AcDbEntity
  8
0484.000
100
AcDbSpline
210
0.0
220
0.0
230
1.0
 70
    24
 71
     3
 72
    14
 73
    10
 74
     0
 42
0.000000001
 43
0.0000000001
 40
0.2879121577304843
 40
0.2879121577304843
 40
0.2879121577304843
 40
0.2879121577304843
 40
0.3926990816987237
 40
0.5890486225480857
 40
0.7853981633974475
 40
0.9817477042468095
 40
1.178097245096171
 40
1.374446785945533
 40
1.570796326794894
 40
1.570796326794894
 40
1.570796326794894
 40
1.570796326794894
 10
1.252360782016005
 20
-6.683935205535812
 30
0.0
 10
1.395960250759588
 20
-6.683935205535812
 30
0.0
 10
1.795879950373465
 20
-6.683935205535812
 30
0.0
 10
2.375989972845213
 20
-6.683935205535812
 30
0.0
 10
2.898643470355138
 20
-6.683935205535812
 30
0.0
 10
3.244360040147597
 20
-6.683935205535814
 30
0.0
 10
3.432991126482283
 20
-6.683935205535809
 30
0.0
 10
3.511309300857841
 20
-6.683935205535812
 30
0.0
 10
3.523753155343054
 20
-6.683935205535812
 30
0.0
 10
3.523760930949561
 20
-6.683935205535812
 30
0.0
1001
REVIT
1002
{
1070
     2
1000
-2001160
1002
}
  0
SPLINE
  5
CD
330
8B
100
AcDbEntity
  8
0484.000
100
AcDbSpline
210
0.0
220
0.0
230
1.0
 70
    24
 71
     3
 72
    14
 73
    10
 74
     0
 42
0.000000001
 43
0.0000000001
 40
-0.5
 40
-0.5
 40
-0.5
 40
-0.5
 40
-0.4285714285714286
 40
-0.3571428571428571
 40
-0.2857142857142857
 40
-0.2142857142857143
 40
-0.1428571428571428
 40
-0.0714285714285714
 40
-0.0431497417840474
 40
-0.0431497417840474
 40
-0.0431497417840474
 40
-0.0431497417840474
 10
9.196528417031746
 20
-1.641184442032781
 30
0.0
 10
9.196560761198865
 20
-1.641184442032781
 30
0.0
 10
9.04304065692164
 20
-1.641184442032781
 30
0.0
 10
8.367932356649015
 20
-1.641184442032781
 30
0.0
 10
7.271870145718633
 20
-1.641184442032781
 30
0.0
 10
5.806980646215888
 20
-1.641184442032781
 30
0.0
 10
4.045033446795256
 20
-1.641184442032781
 30
0.0
 10
2.475397564573363
 20
-1.641184442032781
 30
0.0
 10
1.520124542534669
 20
-1.641184442032781
 30
0.0
 10
1.24791219547595
 20
-1.641184442032781
 30
0.0
1001
REVIT
1002
{
1070
     2
1000
-2001160
1002
}
  0
SPLINE
  5
CE
330
8B
100
AcDbEntity
  8
0484.000
100
AcDbSpline
210
0.0
220
0.0
230
1.0
 70
    24
 71
     3
 72
     8
 73
     4
 74
     0
 42
0.000000001
 43
0.0000000001
 40
-0.0340130810247034
 40
-0.0340130810247034
 40
-0.0340130810247034
 40
-0.0340130810247034
 40
0.0
 40
0.0
 40
0.0
 40
0.0
 10
0.9869077037921838
 20
-1.641184442032781
 30
0.0
 10
0.6592244827642111
 20
-1.641184442032781
 30
0.0
 10
0.3296105244668344
 20
-1.641184442032781
 30
0.0
 10
0.0000000000007191
 20
-1.641184442032781
 30
0.0
1001
REVIT
1002
{
1070
     2
1000
-2001160
1002
}
  0
LINE
  5
CF
330
8B
100
AcDbEntity
  8
0484.000
100
AcDbLine
 10
1.143234262192646
 20
-8.416856331010762
 30
0.0
 11
-1.143234262192351
 21
-8.416856331010739
 31
0.0
1001
REVIT
1002
{
1070
     2
1000
-2001160
1002
}
  0
ENDBLK
  5
8D
330
8B
100
AcDbEntity
  8
0
100
AcDbBlockEnd
  0
BLOCK
  5
1E3
330
1E2
100
AcDbEntity
  8
0
100
AcDbBlockBegin
  2
AMSTD_Estate_0484.000_Front View
 70
     0
 10
0.0
 20
0.0
 30
0.0
  3
AMSTD_Estate_0484.000_Front View
  1

  0
LWPOLYLINE
  5
1E5
330
1E2
100
AcDbEntity
  8
0484.000
100
AcDbPolyline
 90
        9
 70
   128
 43
0.0
 10
-9.068807623123799
 20
-0.0000019192871815
 10
-9.088881524527598
 20
-0.0021049446186737
 10
-9.105859189029414
 20
-0.0071503047876873
 10
-9.119789236071042
 20
-0.013885653553501
 10
-9.141324768594477
 20
-0.030543547687895
 10
-9.154079147499452
 20
-0.0462825897924699
 10
-9.161448120893853
 20
-0.0594944840273246
 10
-9.168697095478302
 20
-0.081051179692762
 10
-9.171034086786983
 20
-0.1024582877463417
1001
REVIT
1002
{
1070
     2
1000
-2001160
1002
}
  0
LWPOLYLINE
  5
1E6
330
1E2
100
AcDbEntity
  8
0484.000
100
AcDbPolyline
 90
       10
 70
   128
 43
0.0
 10
-0.0000000000000639
 20
0.0
 10
-2.034274157375894
 20
0.0
 10
-3.963054735389876
 20
0.0
 10
-5.686271774446725
 20
0.0
 10
-7.11708380549757
 20
0.0
 10
-8.186329799772581
 20
0.0
 10
-8.84504766946039
 20
0.0
 10
-9.068179567225122
 20
0.0
 10
-8.845047669460363
 20
0.0
 10
-8.807291667143454
 20
0.0
1001
REVIT
1002
{
1070
     2
1000
-2001160
1002
}
  0
LINE
  5
1E7
330
1E2
100
AcDbEntity
  8
0484.000
  6
DASHED
100
AcDbLine
 10
-4.91576412585897
 20
-5.835770182774716
 30
0.0
 11
-3.52376093094881
 21
-5.93310852840997
 31
0.0
1001
REVIT
1002
{
1070
     2
1000
-2001160
1002
}
  0
LWPOLYLINE
  5
1E8
330
1E2
100
AcDbEntity
  8
0484.000
  6
DASHED
100
AcDbPolyline
 90
        8
 70
   128
 43
0.0
 10
-5.492210156269625
 20
-5.529268391561547
 10
-5.446554962596284
 20
-5.609500541339184
 10
-5.387869310200963
 20
-5.680776971589884
 10
-5.317871893760358
 20
-5.740999759988854
 10
-5.238616237334083
 20
-5.788395757871168
 10
-5.160411138673191
 20
-5.819193205586677
 10
-5.036050895232115
 20
-5.841771875749321
 10
-4.915764125858967
 20
-5.835770182774716
1001
REVIT
1002
{
1070
     2
1000
-2001160
1002
}
  0
LWPOLYLINE
  5
1E9
330
1E2
100
AcDbEntity
  8
0484.000
  6
DASHED
100
AcDbPolyline
 90
        5
 70
   128
 43
0.0
 10
-5.846918289216879
 20
-5.231632928029924
 10
-5.759692975291978
 20
-5.262739120245472
 10
-5.679026041800327
 20
-5.308235121019936
 10
-5.568580582119117
 20
-5.408466469515994
 10
-5.492210156269627
 20
-5.529268391561547
1001
REVIT
1002
{
1070
     2
1000
-2001160
1002
}
  0
LWPOLYLINE
  5
1EA
330
1E2
100
AcDbEntity
  8
0484.000
  6
DASHED
100
AcDbPolyline
 90
        6
 70
   128
 43
0.0
 10
-6.567334913833212
 20
-4.431529208840026
 10
-6.498127232429931
 20
-4.6720113269982
 10
-6.37029179330743
 20
-4.887235227385025
 10
-6.192215396059118
 20
-5.063069325169395
 10
-6.024014668147781
 20
-5.166302660818098
 10
-5.846918289216877
 20
-5.231632928029926
1001
REVIT
1002
{
1070
     2
1000
-2001160
1002
}
  0
LWPOLYLINE
  5
1EB
330
1E2
100
AcDbEntity
  8
0484.000
  6
DASHED
100
AcDbPolyline
 90
        5
 70
   128
 43
0.0
 10
-7.291266499659029
 20
-3.010733473231252
 10
-7.029587999442441
 20
-3.314425497909943
 10
-6.81887924850496
 20
-3.655470064774757
 10
-6.664378575982528
 20
-4.025394064924896
 10
-6.567334913833209
 20
-4.431529208840035
1001
REVIT
1002
{
1070
     2
1000
-2001160
1002
}
  0
LWPOLYLINE
  5
1EC
330
1E2
100
AcDbEntity
  8
0484.000
  6
DASHED
100
AcDbPolyline
 90
        3
 70
   128
 43
0.0
 10
-8.529665404885665
 20
-1.192051195040463
 10
-7.938590760464202
 20
-2.24692957655091
 10
-7.291266499659015
 20
-3.010733473231268
1001
REVIT
1002
{
1070
     2
1000
-2001160
1002
}
  0
LWPOLYLINE
  5
1ED
330
1E2
100
AcDbEntity
  8
0484.000
  6
DASHED
100
AcDbPolyline
 90
        6
 70
   128
 43
0.0
 10
-8.733610726294605
 20
-0.9004052909027201
 10
-8.675054754084101
 20
-0.9256446365729939
 10
-8.628279398197248
 20
-0.9610213208454753
 10
-8.599375569109234
 20
-0.9938297495880489
 10
-8.567428959512144
 20
-1.051339821357787
 10
-8.551631183731359
 20
-1.112118964137699
1001
REVIT
1002
{
1070
     2
1000
-2001160
1002
}
  0
LWPOLYLINE
  5
1EE
330
1E2
100
AcDbEntity
  8
0484.000
100
AcDbPolyline
 90
        8
 70
   128
 43
0.0
 10
-9.517922221874272
 20
-0.5073355433474506
 10
-9.510010634242144
 20
-0.5853824540122873
 10
-9.486566589289344
 20
-0.6603277854843971
 10
-9.448517045247589
 20
-0.7290782658568941
 10
-9.397934854492943
 20
-0.7882910023119597
 10
-9.353043316060354
 20
-0.8252463769736589
 10
-9.276379330389532
 20
-0.8672569799724122
 10
-9.196528417031
 20
-0.8903577649069355
1001
REVIT
1002
{
1070
     2
1000
-2001160
1002
}
  0
LWPOLYLINE
  5
1EF
330
1E2
100
AcDbEntity
  8
0484.000
100
AcDbPolyline
 90
        9
 70
   128
 43
0.0
 10
-9.360533561277774
 20
-0.3316252587581077
 10
-9.386464683968426
 20
-0.3364668513439547
 10
-9.411416890305694
 20
-0.3451264850254879
 10
-9.434377572008576
 20
-0.3571436370749391
 10
-9.469685792334878
 20
-0.3859792249904577
 10
-9.490505833424162
 20
-0.4127761500239827
 10
-9.502493351107277
 20
-0.4351084794301513
 10
-9.514222414627898
 20
-0.4713583722154856
 10
-9.51792222187427
 20
-0.5073355433474491
1001
REVIT
1002
{
1070
     2
1000
-2001160
1002
}
  0
LWPOLYLINE
  5
1F0
330
1E2
100
AcDbEntity
  8
0484.000
100
AcDbPolyline
 90
        9
 70
   128
 43
0.0
 10
9.171034086787011
 20
-0.1024582877463417
 10
9.168976845903241
 20
-0.0823829194189904
 10
9.16394090001588
 20
-0.0653192011160877
 10
9.157191543670265
 20
-0.0513187254274757
 10
9.140462663661335
 20
-0.0296817714343681
 10
9.124642614136103
 20
-0.0168835857908717
 10
9.111360361599448
 20
-0.0095032696276296
 10
9.08969018203957
 20
-0.0022745491360294
 10
9.068807623123827
 20
-0.0000019192871815
1001
REVIT
1002
{
1070
     2
1000
-2001160
1002
}
  0
LWPOLYLINE
  5
1F1
330
1E2
100
AcDbEntity
  8
0484.000
100
AcDbPolyline
 90
       10
 70
   128
 43
0.0
 10
8.807291667143482
 20
0.0
 10
8.845047669460415
 20
0.0
 10
9.068179567225152
 20
0.0
 10
8.845047669460397
 20
0.0
 10
8.18632979977257
 20
0.0
 10
7.117083805497538
 20
0.0
 10
5.686271774446679
 20
0.0
 10
3.963054735389824
 20
0.0
 10
2.034274157375838
 20
0.0
 10
0.0
 20
0.0
1001
REVIT
1002
{
1070
     2
1000
-2001160
1002
}
  0
LINE
  5
1F2
330
1E2
100
AcDbEntity
  8
0484.000
  6
DASHED
100
AcDbLine
 10
4.915764125859003
 20
-5.835770182774716
 30
0.0
 11
3.523760930948842
 21
-5.93310852840997
 31
0.0
1001
REVIT
1002
{
1070
     2
1000
-2001160
1002
}
  0
LWPOLYLINE
  5
1F3
330
1E2
100
AcDbEntity
  8
0484.000
  6
DASHED
100
AcDbPolyline
 90
        7
 70
   128
 43
0.0
 10
5.007809652860207
 20
-5.842785560623092
 10
5.099717091930668
 20
-5.83399022379839
 10
5.188786104772293
 20
-5.809635891487279
 10
5.272398368438942
 20
-5.770433480141109
 10
5.341662345920311
 20
-5.722820229193381
 10
5.429922277429639
 20
-5.632346746973383
 10
5.492210156269652
 20
-5.529268391561547
1001
REVIT
1002
{
1070
     2
1000
-2001160
1002
}
  0
LWPOLYLINE
  5
1F4
330
1E2
100
AcDbEntity
  8
0484.000
  6
DASHED
100
AcDbPolyline
 90
        5
 70
   128
 43
0.0
 10
5.492210156269652
 20
-5.529268391561547
 10
5.537990292339769
 20
-5.448769759741666
 10
5.596802772632335
 20
-5.377228635852998
 10
5.714690034531312
 20
-5.285866081885444
 10
5.846918289216909
 20
-5.231632928029924
1001
REVIT
1002
{
1070
     2
1000
-2001160
1002
}
  0
LWPOLYLINE
  5
1F5
330
1E2
100
AcDbEntity
  8
0484.000
  6
DASHED
100
AcDbPolyline
 90
        6
 70
   128
 43
0.0
 10
5.846918289216906
 20
-5.231632928029926
 10
6.07884884858648
 20
-5.137667147292193
 10
6.279531287925103
 20
-4.988034980514907
 10
6.435788095975386
 20
-4.792554436371621
 10
6.520874145000768
 20
-4.614484307713654
 10
6.567334913833241
 20
-4.431529208840026
1001
REVIT
1002
{
1070
     2
1000
-2001160
1002
}
  0
LWPOLYLINE
  5
1F6
330
1E2
100
AcDbEntity
  8
0484.000
  6
DASHED
100
AcDbPolyline
 90
        5
 70
   128
 43
0.0
 10
6.567334913833239
 20
-4.431529208840035
 10
6.659216159585153
 20
-4.041321161757146
 10
6.811275513688057
 20
-3.670393234607542
 10
7.019737099658872
 20
-3.327963693137089
 10
7.29126649965906
 20
-3.010733473231252
1001
REVIT
1002
{
1070
     2
1000
-2001160
1002
}
  0
LWPOLYLINE
  5
1F7
330
1E2
100
AcDbEntity
  8
0484.000
  6
DASHED
100
AcDbPolyline
 90
        3
 70
   128
 43
0.0
 10
7.291266499659046
 20
-3.010733473231268
 10
8.056190841190641
 20
-2.074224510104053
 10
8.529665404885699
 20
-1.192051195040463
1001
REVIT
1002
{
1070
     2
1000
-2001160
1002
}
  0
LWPOLYLINE
  5
1F8
330
1E2
100
AcDbEntity
  8
0484.000
  6
DASHED
100
AcDbPolyline
 90
        6
 70
   128
 43
0.0
 10
8.551631183731387
 20
-1.112118964137699
 10
8.567789376001092
 20
-1.0504363954984
 10
8.595739308116398
 20
-0.9988782244368726
 10
8.623834341880373
 20
-0.9653745916441687
 10
8.675893798809921
 20
-0.9251526179989799
 10
8.733610726294633
 20
-0.9004052909027201
1001
REVIT
1002
{
1070
     2
1000
-2001160
1002
}
  0
LWPOLYLINE
  5
1F9
330
1E2
100
AcDbEntity
  8
0484.000
100
AcDbPolyline
 90
        8
 70
   128
 43
0.0
 10
9.196528417031032
 20
-0.8903577649069355
 10
9.272079689033706
 20
-0.8689881182926317
 10
9.341826204147626
 20
-0.8328629542009519
 10
9.402911103736526
 20
-0.7834414302405221
 10
9.452415408918874
 20
-0.7233528320912339
 10
9.480998759230812
 20
-0.6727359019775773
 10
9.509043560420044
 20
-0.5899622829413573
 10
9.517922221874304
 20
-0.5073355433474506
1001
REVIT
1002
{
1070
     2
1000
-2001160
1002
}
  0
LWPOLYLINE
  5
1FA
330
1E2
100
AcDbEntity
  8
0484.000
100
AcDbPolyline
 90
        9
 70
   128
 43
0.0
 10
9.517922221874304
 20
-0.5073355433474491
 10
9.515953839650613
 20
-0.481029847876962
 10
9.510083085846961
 20
-0.4552784186666587
 10
9.500656646970663
 20
-0.4311382633698929
 10
9.475867449782105
 20
-0.3928804895743466
 10
9.45151562197223
 20
-0.3692470855764022
 10
9.430632747447972
 20
-0.3548825783271824
 10
9.395887921628034
 20
-0.3392485533572303
 10
9.360533561277804
 20
-0.3316252587581077
1001
REVIT
1002
{
1070
     2
1000
-2001160
1002
}
  0
LINE
  5
1FB
330
1E2
100
AcDbEntity
  8
0484.000
  6
DASHED
100
AcDbLine
 10
-8.551631183731359
 20
-1.1121189641377
 30
0.0
 11
-8.529665404885676
 21
-1.192051195040433
 31
0.0
1001
REVIT
1002
{
1070
     2
1000
-2001160
1002
}
  0
LWPOLYLINE
  5
1FC
330
1E2
100
AcDbEntity
  8
0484.000
  6
DASHED
100
AcDbPolyline
 90
        3
 70
   128
 43
0.0
 10
-8.803863643243342
 20
-0.8903585382509525
 10
-8.768082682227985
 20
-0.8929699714336452
 10
-8.733610726294605
 20
-0.9004052909027201
1001
REVIT
1002
{
1070
     2
1000
-2001160
1002
}
  0
LINE
  5
1FD
330
1E2
100
AcDbEntity
  8
0484.000
  6
DASHED
100
AcDbLine
 10
8.551631183731389
 20
-1.1121189641377
 30
0.0
 11
8.529665404885708
 21
-1.192051195040433
 31
0.0
1001
REVIT
1002
{
1070
     2
1000
-2001160
1002
}
  0
LWPOLYLINE
  5
1FE
330
1E2
100
AcDbEntity
  8
0484.000
  6
DASHED
100
AcDbPolyline
 90
        3
 70
   128
 43
0.0
 10
8.803863643243374
 20
-0.8903585382509525
 10
8.768082682228017
 20
-0.8929699714336456
 10
8.733610726294635
 20
-0.9004052909027201
1001
REVIT
1002
{
1070
     2
1000
-2001160
1002
}
  0
LWPOLYLINE
  5
1FF
330
1E2
100
AcDbEntity
  8
0484.000
100
AcDbPolyline
 90
        6
 70
   128
 43
0.0
 10
-9.290763000649324
 20
-0.3087777013534597
 10
-9.241688719826102
 20
-0.271279288019933
 10
-9.211468407377491
 20
-0.2346192650376743
 10
-9.193972691850541
 20
-0.2037575539468146
 10
-9.176699681822624
 20
-0.1532972105254038
 10
-9.171034086786983
 20
-0.1024582877463419
1001
REVIT
1002
{
1070
     2
1000
-2001160
1002
}
  0
LWPOLYLINE
  5
200
330
1E2
100
AcDbEntity
  8
0484.000
100
AcDbPolyline
 90
        6
 70
   128
 43
0.0
 10
9.290763000649354
 20
-0.3087777013534597
 10
9.241688719826164
 20
-0.2712792880199587
 10
9.211468407377537
 20
-0.2346192650376976
 10
9.193972691850582
 20
-0.2037575539468341
 10
9.176699681822658
 20
-0.1532972105254152
 10
9.171034086787011
 20
-0.1024582877463419
1001
REVIT
1002
{
1070
     2
1000
-2001160
1002
}
  0
LWPOLYLINE
  5
201
330
1E2
100
AcDbEntity
  8
0484.000
100
AcDbPolyline
 90
        3
 70
   128
 43
0.0
 10
-9.290763000649324
 20
-0.3087777013534593
 10
-9.324907126106504
 20
-0.3239617987774669
 10
-9.360533561277774
 20
-0.3316252587581076
1001
REVIT
1002
{
1070
     2
1000
-2001160
1002
}
  0
LWPOLYLINE
  5
202
330
1E2
100
AcDbEntity
  8
0484.000
100
AcDbPolyline
 90
        3
 70
   128
 43
0.0
 10
9.290763000649354
 20
-0.3087777013534593
 10
9.324907126106536
 20
-0.3239617987774674
 10
9.360533561277804
 20
-0.3316252587581076
1001
REVIT
1002
{
1070
     2
1000
-2001160
1002
}
  0
LINE
  5
203
330
1E2
100
AcDbEntity
  8
0484.000
  6
DASHED
100
AcDbLine
 10
1.746358058643707
 20
-5.944424953624012
 30
0.0
 11
1.875705390720477
 21
-5.93310852840997
 31
0.0
1001
REVIT
1002
{
1070
     2
1000
-2001160
1002
}
  0
LINE
  5
204
330
1E2
100
AcDbEntity
  8
0484.000
  6
DASHED
100
AcDbLine
 10
-1.875705390721155
 20
-5.933108528409972
 30
0.0
 11
-1.746358058644822
 21
-5.944424953623976
 31
0.0
1001
REVIT
1002
{
1070
     2
1000
-2001160
1002
}
  0
LINE
  5
205
330
1E2
100
AcDbEntity
  8
0484.000
  6
DASHED
100
AcDbLine
 10
1.417335019275616
 20
-7.499173322872922
 30
0.0
 11
1.48461095408716
 21
-6.215472014939225
 31
0.0
1001
REVIT
1002
{
1070
     2
1000
-2001160
1002
}
  0
LINE
  5
206
330
1E2
100
AcDbEntity
  8
0484.000
  6
DASHED
100
AcDbLine
 10
-1.484610954088283
 20
-6.215472014939193
 30
0.0
 11
-1.417335019276764
 21
-7.499173322872917
 31
0.0
1001
REVIT
1002
{
1070
     2
1000
-2001160
1002
}
  0
LWPOLYLINE
  5
207
330
1E2
100
AcDbEntity
  8
0484.000
  6
DASHED
100
AcDbPolyline
 90
       37
 70
   128
 43
0.0
 10
-1.48461095408828
 20
-6.215472014939196
 10
-1.48544135440241
 20
-6.204016073830658
 10
-1.486729205942271
 20
-6.192602503408774
 10
-1.488472448420128
 20
-6.181249562951455
 10
-1.490668293019886
 20
-6.169975414741601
 10
-1.493313226858609
 20
-6.158798095011326
 10
-1.496403018606376
 20
-6.14773548508783
 10
-1.499932725255515
 20
-6.136805282787093
 10
-1.503896700028345
 20
-6.126024974101142
 10
-1.508288601410837
 20
-6.115411805224201
 10
-1.513101403297667
 20
-6.104982754962449
 10
-1.518327406232492
 20
-6.09475450757156
 10
-1.523958249725439
 20
-6.084743426065451
 10
-1.529984925628097
 20
-6.074965526038946
 10
-1.53639779254465
 20
-6.065436450046249
 10
-1.543186591256033
 20
-6.056171442576186
 10
-1.550340461132511
 20
-6.047185325664278
 10
-1.557847957508355
 20
-6.038492475180651
 10
-1.565697069990879
 20
-6.030106797831701
 10
-1.573875241674501
 20
-6.022041708912338
 10
-1.582369389229108
 20
-6.014310110844371
 10
-1.591165923830603
 20
-6.006924372535391
 10
-1.600250772900115
 20
-5.999896309591153
 10
-1.609609402617133
 20
-5.993237165413125
 10
-1.619226841170511
 20
-5.986957593211451
 10
-1.629087702710174
 20
-5.981067638962084
 10
-1.639176211961195
 20
-5.975576725335367
 10
-1.649476229460873
 20
-5.970493636621768
 10
-1.659971277378431
 20
-5.965826504678895
 10
-1.670644565876025
 20
-5.961582795922256
 10
-1.681479019968904
 20
-5.957769299380586
 10
-1.692457306841745
 20
-5.954392115834846
 10
-1.703561863577462
 20
-5.951456648058284
 10
-1.714774925254127
 20
-5.948967592173143
 10
-1.726078553365043
 20
-5.946928930137869
 10
-1.737454664516552
 20
-5.945343923376826
 10
-1.746358058644819
 20
-5.944424953623977
1001
REVIT
1002
{
1070
     2
1000
-2001160
1002
}
  0
LWPOLYLINE
  5
208
330
1E2
100
AcDbEntity
  8
0484.000
  6
DASHED
100
AcDbPolyline
 90
       37
 70
   128
 43
0.0
 10
1.746358058643702
 20
-5.944424953624014
 10
1.734938076737982
 20
-5.94565465465965
 10
1.723576404525385
 20
-5.947340049538452
 10
1.712291218257754
 20
-5.949478441988145
 10
1.701100571825742
 20
-5.952066411036978
 10
1.690022367876428
 20
-5.955099816486539
 10
1.679074329172907
 20
-5.958573805535205
 10
1.66827397024165
 20
-5.962482820541573
 10
1.657638569352989
 20
-5.966820607915512
 10
1.647185140879585
 20
-5.971580228122573
 10
1.636930408077049
 20
-5.97675406678575
 10
1.626890776330305
 20
-5.982333846866882
 10
1.617082306908474
 20
-5.988310641908122
 10
1.607520691270265
 20
-5.994674890312389
 10
1.598221225961005
 20
-6.001416410639873
 10
1.589198788141403
 20
-6.008524417896158
 10
1.580467811787285
 20
-6.015987540785933
 10
1.572042264598311
 20
-6.02379383990462
 10
1.563935625652633
 20
-6.031930826838884
 10
1.556160863843231
 20
-6.04038548414543
 10
1.548730417130482
 20
-6.049144286176129
 10
1.54165617264404
 20
-6.058193220716179
 10
1.534949447666001
 20
-6.067517811400651
 10
1.528620971525631
 20
-6.07710314087359
 10
1.522680868434757
 20
-6.086933874652601
 10
1.517138641291164
 20
-6.096994285660747
 10
1.512003156476007
 20
-6.107268279386525
 10
1.507282629669479
 20
-6.11773941963164
 10
1.502984612707475
 20
-6.128390954805423
 10
1.499115981500279
 20
-6.139205844723806
 10
1.49568292503255
 20
-6.150166787869968
 10
1.492690935462298
 20
-6.161256249073089
 10
1.490144799334571
 20
-6.172456487560867
 10
1.488048589924034
 20
-6.18374958534098
 10
1.486405660718572
 20
-6.195117475866045
 10
1.485218640054442
 20
-6.206541972936242
 10
1.48461095408716
 20
-6.215472014939227
1001
REVIT
1002
{
1070
     2
1000
-2001160
1002
}
  0
SPLINE
  5
209
330
1E2
100
AcDbEntity
  8
0484.000
  6
DASHED
100
AcDbSpline
210
0.0
220
0.0
230
1.0
 70
    24
 71
     3
 72
    13
 73
     9
 74
     0
 42
0.000000001
 43
0.0000000001
 40
4.712388980384685
 40
4.712388980384685
 40
4.712388980384685
 40
4.712388980384685
 40
4.908738521234047
 40
5.105088062083408
 40
5.30143760293277
 40
5.497787143782132
 40
5.694136684631494
 40
5.834549620138918
 40
5.834549620138918
 40
5.834549620138918
 40
5.834549620138918
 10
-3.523760930948804
 20
-5.933108528409964
 30
0.0
 10
-3.523760930948801
 20
-5.933108528409964
 30
0.0
 10
-3.511310302729589
 20
-5.933108528409964
 30
0.0
 10
-3.432975956518067
 20
-5.933108528409964
 30
0.0
 10
-3.244419718128304
 20
-5.933108528409964
 30
0.0
 10
-2.898419928392204
 20
-5.933108528409967
 30
0.0
 10
-2.42635565350858
 20
-5.933108528409967
 30
0.0
 10
-2.045186431202226
 20
-5.933108528409966
 30
0.0
 10
-1.875705390721232
 20
-5.933108528409965
 30
0.0
1001
REVIT
1002
{
1070
     2
1000
-2001160
1002
}
  0
SPLINE
  5
20A
330
1E2
100
AcDbEntity
  8
0484.000
100
AcDbSpline
210
0.0
220
0.0
230
1.0
 70
    24
 71
     3
 72
    10
 73
     6
 74
     0
 42
0.000000001
 43
0.0000000001
 40
0.5
 40
0.5
 40
0.5
 40
0.5
 40
0.5714285714285714
 40
0.625
 40
0.6752643768781227
 40
0.6752643768781227
 40
0.6752643768781227
 40
0.6752643768781227
 10
-9.196528417030991
 20
-0.8903577649069337
 30
0.0
 10
-9.196496072863872
 20
-0.8903577649069337
 30
0.0
 10
-9.06205350913413
 20
-0.8903577649069337
 30
0.0
 10
-8.556032302784203
 20
-0.8903577649069344
 30
0.0
 10
-8.10461370947339
 20
-0.8903577649069339
 30
0.0
 10
-7.853369099657611
 20
-0.8903577649069339
 30
0.0
1001
REVIT
1002
{
1070
     2
1000
-2001160
1002
}
  0
SPLINE
  5
20B
330
1E2
100
AcDbEntity
  8
0484.000
100
AcDbSpline
210
0.0
220
0.0
230
1.0
 70
    24
 71
     3
 72
     9
 73
     5
 74
     0
 42
0.000000001
 43
0.0000000001
 40
0.7975654411287828
 40
0.7975654411287828
 40
0.7975654411287828
 40
0.7975654411287828
 40
0.8928571428571427
 40
0.9555115810241122
 40
0.9555115810241122
 40
0.9555115810241122
 40
0.9555115810241122
 10
-5.485953405432803
 20
-0.8903577649069339
 30
0.0
 10
-4.747798008118365
 20
-0.8903577649069346
 30
0.0
 10
-3.387504233372966
 20
-0.890357764906936
 30
0.0
 10
-1.88541136204974
 20
-0.8903577649069335
 30
0.0
 10
-1.283904533428866
 20
-0.8903577649069337
 30
0.0
1001
REVIT
1002
{
1070
     2
1000
-2001160
1002
}
  0
SPLINE
  5
20C
330
1E2
100
AcDbEntity
  8
0484.000
  6
DASHED
100
AcDbSpline
210
0.0
220
0.0
230
1.0
 70
    24
 71
     3
 72
    13
 73
     9
 74
     0
 42
0.000000001
 43
0.0000000001
 40
0.448395863815793
 40
0.448395863815793
 40
0.448395863815793
 40
0.448395863815793
 40
0.5890486225480857
 40
0.7853981633974475
 40
0.9817477042468095
 40
1.178097245096171
 40
1.374446785945533
 40
1.570796326794894
 40
1.570796326794894
 40
1.570796326794894
 40
1.570796326794894
 10
1.875705390720547
 20
-5.933108528409964
 30
0.0
 10
2.045761987628143
 20
-5.933108528409964
 30
0.0
 10
2.425408843985571
 20
-5.933108528409964
 30
0.0
 10
2.898643470354416
 20
-5.933108528409964
 30
0.0
 10
3.244360040146875
 20
-5.933108528409967
 30
0.0
 10
3.432991126481561
 20
-5.933108528409961
 30
0.0
 10
3.511309300857119
 20
-5.933108528409964
 30
0.0
 10
3.523753155342332
 20
-5.933108528409964
 30
0.0
 10
3.523760930948839
 20
-5.933108528409964
 30
0.0
1001
REVIT
1002
{
1070
     2
1000
-2001160
1002
}
  0
SPLINE
  5
20D
330
1E2
100
AcDbEntity
  8
0484.000
100
AcDbSpline
210
0.0
220
0.0
230
1.0
 70
    24
 71
     3
 72
    10
 73
     6
 74
     0
 42
0.000000001
 43
0.0000000001
 40
-0.5
 40
-0.5
 40
-0.5
 40
-0.5
 40
-0.4285714285714286
 40
-0.3571428571428571
 40
-0.3247290296676287
 40
-0.3247290296676287
 40
-0.3247290296676287
 40
-0.3247290296676287
 10
9.196528417031025
 20
-0.8903577649069337
 30
0.0
 10
9.196560761198144
 20
-0.8903577649069337
 30
0.0
 10
9.043040656920918
 20
-0.8903577649069337
 30
0.0
 10
8.490848518202554
 20
-0.8903577649069339
 30
0.0
 10
8.015410356961492
 20
-0.8903577649069337
 30
0.0
 10
7.853369099656627
 20
-0.8903577649069337
 30
0.0
1001
REVIT
1002
{
1070
     2
1000
-2001160
1002
}
  0
SPLINE
  5
20E
330
1E2
100
AcDbEntity
  8
0484.000
100
AcDbSpline
210
0.0
220
0.0
230
1.0
 70
    24
 71
     3
 72
    10
 73
     6
 74
     0
 42
0.000000001
 43
0.0000000001
 40
-0.20244281575231
 40
-0.20244281575231
 40
-0.20244281575231
 40
-0.20244281575231
 40
-0.1428571428571428
 40
-0.0714285714285714
 40
-0.0431497417840474
 40
-0.0431497417840474
 40
-0.0431497417840474
 40
-0.0431497417840474
 10
5.485953405431874
 20
-0.8903577649069339
 30
0.0
 10
5.023978190602552
 20
-0.8903577649069342
 30
0.0
 10
3.936411990908844
 20
-0.8903577649069337
 30
0.0
 10
2.475397564572641
 20
-0.8903577649069337
 30
0.0
 10
1.520124542533947
 20
-0.8903577649069337
 30
0.0
 10
-1.283904533428867
 20
-0.8903577649069337
 30
0.0
1001
REVIT
1002
{
1070
     2
1000
-2001160
1002
}
  0
LINE
  5
20F
330
1E2
100
AcDbEntity
  8
0484.000
100
AcDbLine
 10
-9.196528417030993
 20
-0.8903577649069957
 30
0.0
 11
-9.196528417030993
 21
-1.464030784198537
 31
0.0
1001
REVIT
1002
{
1070
     1
1000
20166
1002
}
1002
{
1070
     2
1000
-2001160
1002
}
  0
LINE
  5
210
330
1E2
100
AcDbEntity
  8
0484.000
100
AcDbLine
 10
-9.136221037816902
 20
-1.806050927524199
 30
0.0
 11
-7.064093945875688
 21
-7.499173322872898
 31
0.0
1001
REVIT
1002
{
1070
     1
1000
20218
1002
}
1002
{
1070
     2
1000
-2001160
1002
}
  0
LINE
  5
211
330
1E2
100
AcDbEntity
  8
0484.000
100
AcDbLine
 10
-7.064093945875688
 20
-7.499173322872898
 30
0.0
 11
7.064093945874605
 21
-7.499173322872942
 31
0.0
1001
REVIT
1002
{
1070
     1
1000
20282
1002
}
1002
{
1070
     2
1000
-2001160
1002
}
  0
ARC
  5
212
330
1E2
100
AcDbEntity
  8
0484.000
100
AcDbCircle
 10
-8.196528417030993
 20
-1.464030784198532
 30
0.0
 40
1.0
100
AcDbArc
 50
180.0000000000001
 51
199.9999999999998
1001
REVIT
1002
{
1070
     1
1000
20325
1002
}
1002
{
1070
     2
1000
-2001160
1002
}
  0
LINE
  5
213
330
1E2
100
AcDbEntity
  8
0484.000
100
AcDbLine
 10
9.196528417030009
 20
-0.8903577649071847
 30
0.0
 11
9.196528417029998
 21
-1.464030784198726
 31
0.0
1001
REVIT
1002
{
1070
     1
1000
20361
1002
}
1002
{
1070
     2
1000
-2001160
1002
}
  0
LINE
  5
214
330
1E2
100
AcDbEntity
  8
0484.000
100
AcDbLine
 10
9.1362210378159
 20
-1.806050927524387
 30
0.0
 11
7.064093945874604
 21
-7.499173322872946
 31
0.0
1001
REVIT
1002
{
1070
     1
1000
20362
1002
}
1002
{
1070
     2
1000
-2001160
1002
}
  0
ARC
  5
215
330
1E2
100
AcDbEntity
  8
0484.000
100
AcDbCircle
 10
8.196528417029998
 20
-1.464030784198701
 30
0.0
 40
0.9999999999999989
100
AcDbArc
 50
339.999999999999
 51
359.9999999999987
1001
REVIT
1002
{
1070
     1
1000
20363
1002
}
1002
{
1070
     2
1000
-2001160
1002
}
  0
LINE
  5
216
330
1E2
100
AcDbEntity
  8
0484.000
100
AcDbLine
 10
-8.031250000000234
 20
0.0008266771271079
 30
0.0
 11
-8.031250000000234
 21
-0.399054564902288
 31
0.0
1001
REVIT
1002
{
1070
     1
1000
20425
1002
}
1002
{
1070
     2
1000
-2001160
1002
}
  0
ARC
  5
217
330
1E2
100
AcDbEntity
  8
0484.000
100
AcDbCircle
 10
-7.805611652225477
 20
-0.3990545649022864
 30
0.0
 40
0.2256383477747573
100
AcDbArc
 50
180.0000000000004
 51
257.7806525060997
1001
REVIT
1002
{
1070
     1
1000
20464
1002
}
1002
{
1070
     2
1000
-2001160
1002
}
  0
LINE
  5
218
330
1E2
100
AcDbEntity
  8
0484.000
100
AcDbLine
 10
-7.853369099657617
 20
-0.6195809583369245
 30
0.0
 11
-7.853369099657618
 21
-1.482228320890079
 31
0.0
1001
REVIT
1002
{
1070
     1
1000
20517
1002
}
1002
{
1070
     2
1000
-2001160
1002
}
  0
ARC
  5
219
330
1E2
100
AcDbEntity
  8
0484.000
100
AcDbCircle
 10
-6.286846550381756
 20
-1.482228320890071
 30
0.0
 40
1.566522549275863
100
AcDbArc
 50
179.9999999999998
 51
229.3339082348822
1001
REVIT
1002
{
1070
     1
1000
20557
1002
}
1002
{
1070
     2
1000
-2001160
1002
}
  0
LINE
  5
21A
330
1E2
100
AcDbEntity
  8
0484.000
100
AcDbLine
 10
-5.603369099657614
 20
0.0008266771270998
 30
0.0
 11
-5.603369099657615
 21
-0.3536520721363336
 31
0.0
1001
REVIT
1002
{
1070
     1
1000
20609
1002
}
1002
{
1070
     2
1000
-2001160
1002
}
  0
ARC
  5
21B
330
1E2
100
AcDbEntity
  8
0484.000
100
AcDbCircle
 10
-5.276098369647052
 20
-0.353652072136332
 30
0.0
 40
0.3272707300105632
100
AcDbArc
 50
180.0000000000002
 51
225.518121553738
1001
REVIT
1002
{
1070
     1
1000
20653
1002
}
1002
{
1070
     2
1000
-2001160
1002
}
  0
ARC
  5
21C
330
1E2
100
AcDbEntity
  8
0484.000
100
AcDbCircle
 10
-5.664966852010341
 20
-0.7496179477994393
 30
0.0
 40
0.2277136582970534
100
AcDbArc
 50
321.8256803631555
 51
45.51812155373804
1001
REVIT
1002
{
1070
     1
1000
20687
1002
}
1002
{
1070
     2
1000
-2001160
1002
}
  0
ARC
  5
21D
330
1E2
100
AcDbEntity
  8
0484.000
100
AcDbCircle
 10
-8.113920629583699
 20
-1.515357764906981
 30
0.0
 40
2.701265764639101
100
AcDbArc
 50
346.6220797352959
 51
13.37792026470381
1001
REVIT
1002
{
1070
     1
1000
20761
1002
}
1002
{
1070
     2
1000
-2001160
1002
}
  0
ARC
  5
21E
330
1E2
100
AcDbEntity
  8
0484.000
100
AcDbCircle
 10
-9.028649052737385
 20
-1.297811191564243
 30
0.0
 40
3.641507541895565
100
AcDbArc
 50
338.9669816212598
 51
346.6220797352959
1001
REVIT
1002
{
1070
     1
1000
20812
1002
}
1002
{
1070
     2
1000
-2001160
1002
}
  0
LINE
  5
21F
330
1E2
100
AcDbEntity
  8
0484.000
100
AcDbLine
 10
-7.153618249223761
 20
-2.727553836756261
 30
0.0
 11
-5.808523837144446
 21
-2.727553836756266
 31
0.0
1001
REVIT
1002
{
1070
     1
1000
20907
1002
}
1002
{
1070
     2
1000
-2001160
1002
}
  0
ARC
  5
220
330
1E2
100
AcDbEntity
  8
0484.000
100
AcDbCircle
 10
-7.153618249223759
 20
-2.491150534090625
 30
0.0
 40
0.2364033026656357
100
AcDbArc
 50
229.3339082348823
 51
269.9999999999992
1001
REVIT
1002
{
1070
     1
1000
20966
1002
}
1002
{
1070
     2
1000
-2001160
1002
}
  0
ARC
  5
221
330
1E2
100
AcDbEntity
  8
0484.000
100
AcDbCircle
 10
-5.808523837144445
 20
-2.536031052538367
 30
0.0
 40
0.191522784217895
100
AcDbArc
 50
269.9999999999994
 51
338.9669816212596
1001
REVIT
1002
{
1070
     1
1000
21012
1002
}
1002
{
1070
     2
1000
-2001160
1002
}
  0
LINE
  5
222
330
1E2
100
AcDbEntity
  8
0484.000
100
AcDbLine
 10
8.031249999999268
 20
0.0008266771269428
 30
0.0
 11
8.031249999999261
 21
-0.3990545649024527
 31
0.0
1001
REVIT
1002
{
1070
     1
1000
21083
1002
}
1002
{
1070
     2
1000
-2001160
1002
}
  0
ARC
  5
223
330
1E2
100
AcDbEntity
  8
0484.000
100
AcDbCircle
 10
7.805611652224502
 20
-0.399054564902447
 30
0.0
 40
0.2256383477747573
100
AcDbArc
 50
282.2193474938988
 51
359.9999999999984
1001
REVIT
1002
{
1070
     1
1000
21084
1002
}
1002
{
1070
     2
1000
-2001160
1002
}
  0
LINE
  5
224
330
1E2
100
AcDbEntity
  8
0484.000
100
AcDbLine
 10
7.853369099656638
 20
-0.6195809583370857
 30
0.0
 11
7.853369099656622
 21
-1.482228320890241
 31
0.0
1001
REVIT
1002
{
1070
     1
1000
21085
1002
}
1002
{
1070
     2
1000
-2001160
1002
}
  0
ARC
  5
225
330
1E2
100
AcDbEntity
  8
0484.000
100
AcDbCircle
 10
6.28684655038076
 20
-1.482228320890201
 30
0.0
 40
1.566522549275861
100
AcDbArc
 50
310.6660917651159
 51
359.9999999999986
1001
REVIT
1002
{
1070
     1
1000
21086
1002
}
1002
{
1070
     2
1000
-2001160
1002
}
  0
LINE
  5
226
330
1E2
100
AcDbEntity
  8
0484.000
100
AcDbLine
 10
5.603369099656648
 20
0.0008266771269847
 30
0.0
 11
5.603369099656641
 21
-0.3536520721364486
 31
0.0
1001
REVIT
1002
{
1070
     1
1000
21087
1002
}
1002
{
1070
     2
1000
-2001160
1002
}
  0
ARC
  5
227
330
1E2
100
AcDbEntity
  8
0484.000
100
AcDbCircle
 10
5.276098369646078
 20
-0.3536520721364403
 30
0.0
 40
0.3272707300105627
100
AcDbArc
 50
314.4818784462608
 51
359.9999999999986
1001
REVIT
1002
{
1070
     1
1000
21088
1002
}
1002
{
1070
     2
1000
-2001160
1002
}
  0
ARC
  5
228
330
1E2
100
AcDbEntity
  8
0484.000
100
AcDbCircle
 10
5.664966852009358
 20
-0.7496179477995559
 30
0.0
 40
0.2277136582970528
100
AcDbArc
 50
134.4818784462608
 51
218.1743196368425
1001
REVIT
1002
{
1070
     1
1000
21089
1002
}
1002
{
1070
     2
1000
-2001160
1002
}
  0
ARC
  5
229
330
1E2
100
AcDbEntity
  8
0484.000
100
AcDbCircle
 10
8.113920629582702
 20
-1.515357764907148
 30
0.0
 40
2.7012657646391
100
AcDbArc
 50
166.622079735295
 51
193.3779202647023
1001
REVIT
1002
{
1070
     1
1000
21090
1002
}
1002
{
1070
     2
1000
-2001160
1002
}
  0
ARC
  5
22A
330
1E2
100
AcDbEntity
  8
0484.000
100
AcDbCircle
 10
9.028649052736392
 20
-1.297811191564429
 30
0.0
 40
3.641507541895564
100
AcDbArc
 50
193.3779202647025
 51
201.0330183787387
1001
REVIT
1002
{
1070
     1
1000
21091
1002
}
1002
{
1070
     2
1000
-2001160
1002
}
  0
LINE
  5
22B
330
1E2
100
AcDbEntity
  8
0484.000
100
AcDbLine
 10
7.153618249222738
 20
-2.727553836756409
 30
0.0
 11
5.808523837143423
 21
-2.727553836756385
 31
0.0
1001
REVIT
1002
{
1070
     1
1000
21092
1002
}
1002
{
1070
     2
1000
-2001160
1002
}
  0
ARC
  5
22C
330
1E2
100
AcDbEntity
  8
0484.000
100
AcDbCircle
 10
7.153618249222741
 20
-2.491150534090773
 30
0.0
 40
0.236403302665636
100
AcDbArc
 50
269.999999999999
 51
310.6660917651161
1001
REVIT
1002
{
1070
     1
1000
21093
1002
}
1002
{
1070
     2
1000
-2001160
1002
}
  0
ARC
  5
22D
330
1E2
100
AcDbEntity
  8
0484.000
100
AcDbCircle
 10
5.808523837143426
 20
-2.536031052538486
 30
0.0
 40
0.1915227842178941
100
AcDbArc
 50
201.0330183787393
 51
269.999999999999
1001
REVIT
1002
{
1070
     1
1000
21094
1002
}
1002
{
1070
     2
1000
-2001160
1002
}
  0
LWPOLYLINE
  5
22E
330
1E2
100
AcDbEntity
  8
0484.000
  6
DASHED
100
AcDbPolyline
 90
        8
 70
   128
 43
0.0
 10
5.492210156268476
 20
-5.529268391561547
 10
5.446554962595134
 20
-5.609500541339184
 10
5.387869310199813
 20
-5.680776971589884
 10
5.317871893759208
 20
-5.740999759988854
 10
5.238616237332933
 20
-5.788395757871168
 10
5.160411138672041
 20
-5.819193205586677
 10
5.036050895230965
 20
-5.841771875749321
 10
4.915764125857818
 20
-5.835770182774716
1001
REVIT
1002
{
1070
     2
1000
-2001160
1002
}
  0
ENDBLK
  5
1E4
330
1E2
100
AcDbEntity
  8
0
100
AcDbBlockEnd
  0
BLOCK
  5
231
330
230
100
AcDbEntity
  8
0
100
AcDbBlockBegin
  2
AMSTD_Estate_0484.000_Side View
 70
     0
 10
0.0
 20
0.0
 30
0.0
  3
AMSTD_Estate_0484.000_Side View
  1

  0
LINE
  5
233
330
230
100
AcDbEntity
  8
0484.000
100
AcDbLine
 10
-8.179391338343016
 20
-0.8903577649069957
 30
0.0
 11
-8.179391338343016
 21
-1.46403078419853
 31
0.0
1001
REVIT
1002
{
1070
     1
1000
23066
1002
}
1002
{
1070
     2
1000
-2001160
1002
}
  0
LINE
  5
234
330
230
100
AcDbEntity
  8
0484.000
100
AcDbLine
 10
-8.119083959128928
 20
-1.806050927524193
 30
0.0
 11
-6.046956867187709
 21
-7.499173322872898
 31
0.0
1001
REVIT
1002
{
1070
     1
1000
23067
1002
}
1002
{
1070
     2
1000
-2001160
1002
}
  0
LINE
  5
235
330
230
100
AcDbEntity
  8
0484.000
100
AcDbLine
 10
-6.046956867187709
 20
-7.499173322872898
 30
0.0
 11
5.342854226352997
 21
-7.499173322872935
 31
0.0
1001
REVIT
1002
{
1070
     1
1000
23068
1002
}
1002
{
1070
     2
1000
-2001160
1002
}
  0
ARC
  5
236
330
230
100
AcDbEntity
  8
0484.000
100
AcDbCircle
 10
-7.179391338343016
 20
-1.464030784198532
 30
0.0
 40
1.0
100
AcDbArc
 50
180.0
 51
199.9999999999989
1001
REVIT
1002
{
1070
     1
1000
23069
1002
}
1002
{
1070
     2
1000
-2001160
1002
}
  0
LINE
  5
237
330
230
100
AcDbEntity
  8
0484.000
100
AcDbLine
 10
-7.014112921312261
 20
0.000826677127108
 30
0.0
 11
-7.014112921312261
 21
-0.3990545649022862
 31
0.0
1001
REVIT
1002
{
1070
     1
1000
23070
1002
}
1002
{
1070
     2
1000
-2001160
1002
}
  0
ARC
  5
238
330
230
100
AcDbEntity
  8
0484.000
100
AcDbCircle
 10
-6.788474573537499
 20
-0.3990545649022862
 30
0.0
 40
0.2256383477747619
100
AcDbArc
 50
180.0
 51
257.7806525061003
1001
REVIT
1002
{
1070
     1
1000
23071
1002
}
1002
{
1070
     2
1000
-2001160
1002
}
  0
LINE
  5
239
330
230
100
AcDbEntity
  8
0484.000
100
AcDbLine
 10
-6.836232020969639
 20
-0.619580958336924
 30
0.0
 11
-6.836232020969639
 21
-1.482228320890069
 31
0.0
1001
REVIT
1002
{
1070
     1
1000
23072
1002
}
1002
{
1070
     2
1000
-2001160
1002
}
  0
ARC
  5
23A
330
230
100
AcDbEntity
  8
0484.000
100
AcDbCircle
 10
-5.269709471693779
 20
-1.482228320890071
 30
0.0
 40
1.566522549275859
100
AcDbArc
 50
180.0
 51
229.3339082348818
1001
REVIT
1002
{
1070
     1
1000
23073
1002
}
1002
{
1070
     2
1000
-2001160
1002
}
  0
LINE
  5
23B
330
230
100
AcDbEntity
  8
0484.000
100
AcDbLine
 10
-4.586232020969632
 20
0.0008266771271001
 30
0.0
 11
-4.586232020969632
 21
-0.3536520721363311
 31
0.0
1001
REVIT
1002
{
1070
     1
1000
23074
1002
}
1002
{
1070
     2
1000
-2001160
1002
}
  0
ARC
  5
23C
330
230
100
AcDbEntity
  8
0484.000
100
AcDbCircle
 10
-4.258961290959071
 20
-0.3536520721363318
 30
0.0
 40
0.3272707300105679
100
AcDbArc
 50
180.0
 51
225.5181215537375
1001
REVIT
1002
{
1070
     1
1000
23075
1002
}
1002
{
1070
     2
1000
-2001160
1002
}
  0
ARC
  5
23D
330
230
100
AcDbEntity
  8
0484.000
100
AcDbCircle
 10
-4.647829773322364
 20
-0.7496179477994393
 30
0.0
 40
0.2277136582970584
100
AcDbArc
 50
321.825680363154
 51
45.51812155373854
1001
REVIT
1002
{
1070
     1
1000
23076
1002
}
1002
{
1070
     2
1000
-2001160
1002
}
  0
ARC
  5
23E
330
230
100
AcDbEntity
  8
0484.000
100
AcDbCircle
 10
-7.096783550895722
 20
-1.515357764906981
 30
0.0
 40
2.701265764639095
100
AcDbArc
 50
346.6220797352959
 51
13.37792026470378
1001
REVIT
1002
{
1070
     1
1000
23077
1002
}
1002
{
1070
     2
1000
-2001160
1002
}
  0
ARC
  5
23F
330
230
100
AcDbEntity
  8
0484.000
100
AcDbCircle
 10
-8.011511974049412
 20
-1.297811191564243
 30
0.0
 40
3.641507541895562
100
AcDbArc
 50
338.9669816212599
 51
346.6220797352959
1001
REVIT
1002
{
1070
     1
1000
23078
1002
}
1002
{
1070
     2
1000
-2001160
1002
}
  0
LINE
  5
240
330
230
100
AcDbEntity
  8
0484.000
100
AcDbLine
 10
-6.13648117053578
 20
-2.727553836756261
 30
0.0
 11
-4.791386758456468
 21
-2.727553836756266
 31
0.0
1001
REVIT
1002
{
1070
     1
1000
23079
1002
}
1002
{
1070
     2
1000
-2001160
1002
}
  0
ARC
  5
241
330
230
100
AcDbEntity
  8
0484.000
100
AcDbCircle
 10
-6.13648117053578
 20
-2.491150534090625
 30
0.0
 40
0.2364033026656369
100
AcDbArc
 50
229.3339082348796
 51
270.0
1001
REVIT
1002
{
1070
     1
1000
23080
1002
}
1002
{
1070
     2
1000
-2001160
1002
}
  0
ARC
  5
242
330
230
100
AcDbEntity
  8
0484.000
100
AcDbCircle
 10
-4.791386758456468
 20
-2.536031052538367
 30
0.0
 40
0.191522784217895
100
AcDbArc
 50
270.0
 51
338.9669816212599
1001
REVIT
1002
{
1070
     1
1000
23081
1002
}
1002
{
1070
     2
1000
-2001160
1002
}
  0
LINE
  5
243
330
230
100
AcDbEntity
  8
0484.000
100
AcDbLine
 10
7.213665495717364
 20
-0.8903577649070241
 30
0.0
 11
7.213665495717364
 21
-1.464030784198559
 31
0.0
1001
REVIT
1002
{
1070
     1
1000
23222
1002
}
1002
{
1070
     2
1000
-2001160
1002
}
  0
LINE
  5
244
330
230
100
AcDbEntity
  8
0484.000
100
AcDbLine
 10
7.15335811650327
 20
-1.806050927524221
 30
0.0
 11
5.081231024562029
 21
-7.499173322872935
 31
0.0
1001
REVIT
1002
{
1070
     1
1000
23223
1002
}
1002
{
1070
     2
1000
-2001160
1002
}
  0
ARC
  5
245
330
230
100
AcDbEntity
  8
0484.000
100
AcDbCircle
 10
6.213665495717357
 20
-1.464030784198557
 30
0.0
 40
1.0
100
AcDbArc
 50
339.9999999999999
 51
0.0
1001
REVIT
1002
{
1070
     1
1000
23224
1002
}
1002
{
1070
     2
1000
-2001160
1002
}
  0
LINE
  5
246
330
230
100
AcDbEntity
  8
0484.000
100
AcDbLine
 10
6.048387078686609
 20
0.0008266771270841
 30
0.0
 11
6.048387078686609
 21
-0.3990545649023102
 31
0.0
1001
REVIT
1002
{
1070
     1
1000
23225
1002
}
1002
{
1070
     2
1000
-2001160
1002
}
  0
ARC
  5
247
330
230
100
AcDbEntity
  8
0484.000
100
AcDbCircle
 10
5.822748730911847
 20
-0.399054564902309
 30
0.0
 40
0.2256383477747548
100
AcDbArc
 50
282.2193474938996
 51
0.0
1001
REVIT
1002
{
1070
     1
1000
23226
1002
}
1002
{
1070
     2
1000
-2001160
1002
}
  0
LINE
  5
248
330
230
100
AcDbEntity
  8
0484.000
100
AcDbLine
 10
5.870506178343987
 20
-0.6195809583369471
 30
0.0
 11
5.870506178343987
 21
-1.482228320890092
 31
0.0
1001
REVIT
1002
{
1070
     1
1000
23227
1002
}
1002
{
1070
     2
1000
-2001160
1002
}
  0
ARC
  5
249
330
230
100
AcDbEntity
  8
0484.000
100
AcDbCircle
 10
4.30398362906812
 20
-1.482228320890089
 30
0.0
 40
1.566522549275859
100
AcDbArc
 50
310.6660917651173
 51
0.0
1001
REVIT
1002
{
1070
     1
1000
23228
1002
}
1002
{
1070
     2
1000
-2001160
1002
}
  0
LINE
  5
24A
330
230
100
AcDbEntity
  8
0484.000
100
AcDbLine
 10
3.62050617834398
 20
0.0008266771270848
 30
0.0
 11
3.62050617834398
 21
-0.3536520721363464
 31
0.0
1001
REVIT
1002
{
1070
     1
1000
23229
1002
}
1002
{
1070
     2
1000
-2001160
1002
}
  0
ARC
  5
24B
330
230
100
AcDbEntity
  8
0484.000
100
AcDbCircle
 10
3.293235448333426
 20
-0.3536520721363457
 30
0.0
 40
0.3272707300105608
100
AcDbArc
 50
314.4818784462623
 51
0.0
1001
REVIT
1002
{
1070
     1
1000
23230
1002
}
1002
{
1070
     2
1000
-2001160
1002
}
  0
ARC
  5
24C
330
230
100
AcDbEntity
  8
0484.000
100
AcDbCircle
 10
3.682103930696712
 20
-0.7496179477994546
 30
0.0
 40
0.2277136582970535
100
AcDbArc
 50
134.4818784462611
 51
218.1743196368428
1001
REVIT
1002
{
1070
     1
1000
23231
1002
}
1002
{
1070
     2
1000
-2001160
1002
}
  0
ARC
  5
24D
330
230
100
AcDbEntity
  8
0484.000
100
AcDbCircle
 10
6.13105770827007
 20
-1.515357764907005
 30
0.0
 40
2.701265764639106
100
AcDbArc
 50
166.6220797352959
 51
193.3779202647031
1001
REVIT
1002
{
1070
     1
1000
23232
1002
}
1002
{
1070
     2
1000
-2001160
1002
}
  0
ARC
  5
24E
330
230
100
AcDbEntity
  8
0484.000
100
AcDbCircle
 10
7.045786131423753
 20
-1.29781119156427
 30
0.0
 40
3.641507541895563
100
AcDbArc
 50
193.3779202647034
 51
201.0330183787396
1001
REVIT
1002
{
1070
     1
1000
23233
1002
}
1002
{
1070
     2
1000
-2001160
1002
}
  0
LINE
  5
24F
330
230
100
AcDbEntity
  8
0484.000
100
AcDbLine
 10
5.170755327910129
 20
-2.727553836756283
 30
0.0
 11
3.825660915830809
 21
-2.727553836756282
 31
0.0
1001
REVIT
1002
{
1070
     1
1000
23234
1002
}
1002
{
1070
     2
1000
-2001160
1002
}
  0
ARC
  5
250
330
230
100
AcDbEntity
  8
0484.000
100
AcDbCircle
 10
5.170755327910129
 20
-2.491150534090646
 30
0.0
 40
0.2364033026656369
100
AcDbArc
 50
270.0
 51
310.6660917651195
1001
REVIT
1002
{
1070
     1
1000
23235
1002
}
1002
{
1070
     2
1000
-2001160
1002
}
  0
ARC
  5
251
330
230
100
AcDbEntity
  8
0484.000
100
AcDbCircle
 10
3.825660915830809
 20
-2.536031052538383
 30
0.0
 40
0.1915227842178955
100
AcDbArc
 50
201.0330183787398
 51
270.0
1001
REVIT
1002
{
1070
     1
1000
23236
1002
}
1002
{
1070
     2
1000
-2001160
1002
}
  0
LWPOLYLINE
  5
252
330
230
100
AcDbEntity
  8
0484.000
100
AcDbPolyline
 90
        9
 70
   128
 43
0.0
 10
-8.051670544435822
 20
-0.0000019192871815
 10
-8.07174444583962
 20
-0.0021049446186737
 10
-8.088722110341436
 20
-0.0071503047876873
 10
-8.102652157383062
 20
-0.013885653553501
 10
-8.124187689906499
 20
-0.030543547687895
 10
-8.136942068811478
 20
-0.0462825897924699
 10
-8.144311042205877
 20
-0.0594944840273246
 10
-8.151560016790327
 20
-0.081051179692762
 10
-8.153897008099008
 20
-0.1024582877463417
1001
REVIT
1002
{
1070
     2
1000
-2001160
1002
}
  0
LWPOLYLINE
  5
253
330
230
100
AcDbEntity
  8
0484.000
100
AcDbPolyline
 90
       10
 70
   128
 43
0.0
 10
1.017137078687916
 20
0.0
 10
-1.017137078687916
 20
0.0
 10
-2.945917656701901
 20
0.0
 10
-4.669134695758749
 20
0.0
 10
-6.099946726809591
 20
0.0
 10
-7.169192721084606
 20
0.0
 10
-7.827910590772411
 20
0.0
 10
-8.051042488537149
 20
0.0
 10
-7.82791059077239
 20
0.0
 10
-7.790154588455479
 20
0.0
1001
REVIT
1002
{
1070
     2
1000
-2001160
1002
}
  0
LWPOLYLINE
  5
254
330
230
100
AcDbEntity
  8
0484.000
100
AcDbPolyline
 90
        8
 70
   128
 43
0.0
 10
-8.500785143186291
 20
-0.5073355433474506
 10
-8.492873555554169
 20
-0.5853824540122873
 10
-8.469429510601365
 20
-0.6603277854843971
 10
-8.43137996655961
 20
-0.7290782658568941
 10
-8.380797775804964
 20
-0.7882910023119597
 10
-8.335906237372377
 20
-0.8252463769736589
 10
-8.259242251701557
 20
-0.8672569799724122
 10
-8.179391338343023
 20
-0.8903577649069355
1001
REVIT
1002
{
1070
     2
1000
-2001160
1002
}
  0
LWPOLYLINE
  5
255
330
230
100
AcDbEntity
  8
0484.000
100
AcDbPolyline
 90
        9
 70
   128
 43
0.0
 10
-8.343396482589795
 20
-0.3316252587581077
 10
-8.369327605280446
 20
-0.3364668513439547
 10
-8.394279811617721
 20
-0.3451264850254879
 10
-8.417240493320598
 20
-0.3571436370749391
 10
-8.452548713646905
 20
-0.3859792249904577
 10
-8.473368754736185
 20
-0.4127761500239827
 10
-8.485356272419302
 20
-0.4351084794301513
 10
-8.497085335939921
 20
-0.4713583722154856
 10
-8.500785143186291
 20
-0.5073355433474491
1001
REVIT
1002
{
1070
     2
1000
-2001160
1002
}
  0
LWPOLYLINE
  5
256
330
230
100
AcDbEntity
  8
0484.000
100
AcDbPolyline
 90
        6
 70
   128
 43
0.0
 10
-8.273625921961347
 20
-0.3087777013534597
 10
-8.224551641138127
 20
-0.271279288019933
 10
-8.194331328689514
 20
-0.2346192650376743
 10
-8.176835613162566
 20
-0.2037575539468146
 10
-8.159562603134645
 20
-0.1532972105254038
 10
-8.153897008099008
 20
-0.1024582877463419
1001
REVIT
1002
{
1070
     2
1000
-2001160
1002
}
  0
LWPOLYLINE
  5
257
330
230
100
AcDbEntity
  8
0484.000
100
AcDbPolyline
 90
        3
 70
   128
 43
0.0
 10
-8.273625921961347
 20
-0.3087777013534593
 10
-8.307770047418529
 20
-0.3239617987774669
 10
-8.343396482589795
 20
-0.3316252587581076
1001
REVIT
1002
{
1070
     2
1000
-2001160
1002
}
  0
SPLINE
  5
258
330
230
100
AcDbEntity
  8
0484.000
100
AcDbSpline
210
0.0
220
0.0
230
1.0
 70
    24
 71
     3
 72
    10
 73
     6
 74
     0
 42
0.000000001
 43
0.0000000001
 40
0.5
 40
0.5
 40
0.5
 40
0.5
 40
0.5714285714285714
 40
0.625
 40
0.6752643768781227
 40
0.6752643768781227
 40
0.6752643768781227
 40
0.6752643768781227
 10
-8.179391338343016
 20
-0.8903577649069337
 30
0.0
 10
-8.179358994175899
 20
-0.8903577649069337
 30
0.0
 10
-8.04491643044615
 20
-0.8903577649069337
 30
0.0
 10
-7.538895224096222
 20
-0.8903577649069344
 30
0.0
 10
-7.087476630785417
 20
-0.8903577649069339
 30
0.0
 10
-6.836232020969632
 20
-0.8903577649069339
 30
0.0
1001
REVIT
1002
{
1070
     2
1000
-2001160
1002
}
  0
SPLINE
  5
259
330
230
100
AcDbEntity
  8
0484.000
100
AcDbSpline
210
0.0
220
0.0
230
1.0
 70
    24
 71
     3
 72
     9
 73
     5
 74
     0
 42
0.000000001
 43
0.0000000001
 40
0.7975654411287828
 40
0.7975654411287828
 40
0.7975654411287828
 40
0.7975654411287828
 40
0.8928571428571427
 40
0.9555115810241122
 40
0.9555115810241122
 40
0.9555115810241122
 40
0.9555115810241122
 10
-4.468816326744828
 20
-0.8903577649069339
 30
0.0
 10
-3.730660929430385
 20
-0.8903577649069346
 30
0.0
 10
-2.370367154684991
 20
-0.890357764906936
 30
0.0
 10
-0.8682742833617638
 20
-0.8903577649069335
 30
0.0
 10
-0.2667674547408865
 20
-0.8903577649069337
 30
0.0
1001
REVIT
1002
{
1070
     2
1000
-2001160
1002
}
  0
LINE
  5
25A
330
230
100
AcDbEntity
  8
0484.000
100
AcDbLine
 10
-7.014112921312261
 20
0.0008266771271079
 30
0.0
 11
-7.014112921312261
 21
-0.399054564902288
 31
0.0
1001
REVIT
1002
{
1070
     1
1000
20425
1002
}
1002
{
1070
     2
1000
-2001160
1002
}
  0
ARC
  5
25B
330
230
100
AcDbEntity
  8
0484.000
100
AcDbCircle
 10
-6.788474573537499
 20
-0.3990545649022864
 30
0.0
 40
0.2256383477747573
100
AcDbArc
 50
180.0000000000004
 51
257.7806525060995
1001
REVIT
1002
{
1070
     1
1000
20464
1002
}
1002
{
1070
     2
1000
-2001160
1002
}
  0
LINE
  5
25C
330
230
100
AcDbEntity
  8
0484.000
100
AcDbLine
 10
-6.836232020969639
 20
-0.6195809583369245
 30
0.0
 11
-6.836232020969639
 21
-1.482228320890079
 31
0.0
1001
REVIT
1002
{
1070
     1
1000
20517
1002
}
1002
{
1070
     2
1000
-2001160
1002
}
  0
ARC
  5
25D
330
230
100
AcDbEntity
  8
0484.000
100
AcDbCircle
 10
-5.269709471693779
 20
-1.482228320890071
 30
0.0
 40
1.566522549275863
100
AcDbArc
 50
179.9999999999998
 51
229.3339082348824
1001
REVIT
1002
{
1070
     1
1000
20557
1002
}
1002
{
1070
     2
1000
-2001160
1002
}
  0
LINE
  5
25E
330
230
100
AcDbEntity
  8
0484.000
100
AcDbLine
 10
-4.586232020969639
 20
0.0008266771270998
 30
0.0
 11
-4.586232020969639
 21
-0.3536520721363336
 31
0.0
1001
REVIT
1002
{
1070
     1
1000
20609
1002
}
1002
{
1070
     2
1000
-2001160
1002
}
  0
ARC
  5
25F
330
230
100
AcDbEntity
  8
0484.000
100
AcDbCircle
 10
-4.258961290959078
 20
-0.353652072136332
 30
0.0
 40
0.3272707300105632
100
AcDbArc
 50
180.0000000000002
 51
225.5181215537378
1001
REVIT
1002
{
1070
     1
1000
20653
1002
}
1002
{
1070
     2
1000
-2001160
1002
}
  0
ARC
  5
260
330
230
100
AcDbEntity
  8
0484.000
100
AcDbCircle
 10
-4.647829773322364
 20
-0.7496179477994393
 30
0.0
 40
0.2277136582970534
100
AcDbArc
 50
321.8256803631556
 51
45.51812155373832
1001
REVIT
1002
{
1070
     1
1000
20687
1002
}
1002
{
1070
     2
1000
-2001160
1002
}
  0
ARC
  5
261
330
230
100
AcDbEntity
  8
0484.000
100
AcDbCircle
 10
-7.096783550895722
 20
-1.51535776490698
 30
0.0
 40
2.701265764639101
100
AcDbArc
 50
346.6220797352958
 51
13.37792026470377
1001
REVIT
1002
{
1070
     1
1000
20761
1002
}
1002
{
1070
     2
1000
-2001160
1002
}
  0
ARC
  5
262
330
230
100
AcDbEntity
  8
0484.000
100
AcDbCircle
 10
-8.011511974049412
 20
-1.297811191564243
 30
0.0
 40
3.641507541895565
100
AcDbArc
 50
338.9669816212599
 51
346.6220797352959
1001
REVIT
1002
{
1070
     1
1000
20812
1002
}
1002
{
1070
     2
1000
-2001160
1002
}
  0
LINE
  5
263
330
230
100
AcDbEntity
  8
0484.000
100
AcDbLine
 10
-6.13648117053578
 20
-2.727553836756261
 30
0.0
 11
-4.791386758456468
 21
-2.727553836756266
 31
0.0
1001
REVIT
1002
{
1070
     1
1000
20907
1002
}
1002
{
1070
     2
1000
-2001160
1002
}
  0
ARC
  5
264
330
230
100
AcDbEntity
  8
0484.000
100
AcDbCircle
 10
-6.13648117053578
 20
-2.491150534090625
 30
0.0
 40
0.2364033026656357
100
AcDbArc
 50
229.3339082348824
 51
269.9999999999992
1001
REVIT
1002
{
1070
     1
1000
20966
1002
}
1002
{
1070
     2
1000
-2001160
1002
}
  0
ARC
  5
265
330
230
100
AcDbEntity
  8
0484.000
100
AcDbCircle
 10
-4.791386758456468
 20
-2.536031052538367
 30
0.0
 40
0.191522784217895
100
AcDbArc
 50
269.9999999999992
 51
338.9669816212597
1001
REVIT
1002
{
1070
     1
1000
21012
1002
}
1002
{
1070
     2
1000
-2001160
1002
}
  0
LINE
  5
266
330
230
100
AcDbEntity
  8
0484.000
100
AcDbLine
 10
6.048387078686573
 20
0.000826677127108
 30
0.0
 11
6.048387078686573
 21
-0.3990545649022862
 31
0.0
1001
REVIT
1002
{
1070
     1
1000
23070
1002
}
1002
{
1070
     2
1000
-2001160
1002
}
  0
ARC
  5
267
330
230
100
AcDbEntity
  8
0484.000
100
AcDbCircle
 10
5.822748730911811
 20
-0.3990545649022862
 30
0.0
 40
0.2256383477747619
100
AcDbArc
 50
282.2193474938996
 51
0.0000000000000064
1001
REVIT
1002
{
1070
     1
1000
23071
1002
}
1002
{
1070
     2
1000
-2001160
1002
}
  0
LINE
  5
268
330
230
100
AcDbEntity
  8
0484.000
100
AcDbLine
 10
5.870506178343951
 20
-0.619580958336924
 30
0.0
 11
5.870506178343951
 21
-1.482228320890069
 31
0.0
1001
REVIT
1002
{
1070
     1
1000
23072
1002
}
1002
{
1070
     2
1000
-2001160
1002
}
  0
ARC
  5
269
330
230
100
AcDbEntity
  8
0484.000
100
AcDbCircle
 10
4.303983629068092
 20
-1.482228320890071
 30
0.0
 40
1.566522549275859
100
AcDbArc
 50
310.6660917651183
 51
0.0000000000000318
1001
REVIT
1002
{
1070
     1
1000
23073
1002
}
1002
{
1070
     2
1000
-2001160
1002
}
  0
LINE
  5
26A
330
230
100
AcDbEntity
  8
0484.000
100
AcDbLine
 10
3.620506178343944
 20
0.0008266771271001
 30
0.0
 11
3.620506178343944
 21
-0.3536520721363311
 31
0.0
1001
REVIT
1002
{
1070
     1
1000
23074
1002
}
1002
{
1070
     2
1000
-2001160
1002
}
  0
ARC
  5
26B
330
230
100
AcDbEntity
  8
0484.000
100
AcDbCircle
 10
3.293235448333383
 20
-0.3536520721363318
 30
0.0
 40
0.3272707300105679
100
AcDbArc
 50
314.4818784462625
 51
0.0000000000000064
1001
REVIT
1002
{
1070
     1
1000
23075
1002
}
1002
{
1070
     2
1000
-2001160
1002
}
  0
ARC
  5
26C
330
230
100
AcDbEntity
  8
0484.000
100
AcDbCircle
 10
3.682103930696676
 20
-0.7496179477994393
 30
0.0
 40
0.2277136582970584
100
AcDbArc
 50
134.4818784462614
 51
218.1743196368458
1001
REVIT
1002
{
1070
     1
1000
23076
1002
}
1002
{
1070
     2
1000
-2001160
1002
}
  0
ARC
  5
26D
330
230
100
AcDbEntity
  8
0484.000
100
AcDbCircle
 10
6.131057708270034
 20
-1.515357764906981
 30
0.0
 40
2.701265764639095
100
AcDbArc
 50
166.6220797352962
 51
193.377920264704
1001
REVIT
1002
{
1070
     1
1000
23077
1002
}
1002
{
1070
     2
1000
-2001160
1002
}
  0
ARC
  5
26E
330
230
100
AcDbEntity
  8
0484.000
100
AcDbCircle
 10
7.045786131423724
 20
-1.297811191564243
 30
0.0
 40
3.641507541895562
100
AcDbArc
 50
193.377920264704
 51
201.03301837874
1001
REVIT
1002
{
1070
     1
1000
23078
1002
}
1002
{
1070
     2
1000
-2001160
1002
}
  0
LINE
  5
26F
330
230
100
AcDbEntity
  8
0484.000
100
AcDbLine
 10
5.170755327910093
 20
-2.727553836756261
 30
0.0
 11
3.825660915830781
 21
-2.727553836756266
 31
0.0
1001
REVIT
1002
{
1070
     1
1000
23079
1002
}
1002
{
1070
     2
1000
-2001160
1002
}
  0
ARC
  5
270
330
230
100
AcDbEntity
  8
0484.000
100
AcDbCircle
 10
5.170755327910093
 20
-2.491150534090625
 30
0.0
 40
0.2364033026656369
100
AcDbArc
 50
270.0
 51
310.6660917651206
1001
REVIT
1002
{
1070
     1
1000
23080
1002
}
1002
{
1070
     2
1000
-2001160
1002
}
  0
ARC
  5
271
330
230
100
AcDbEntity
  8
0484.000
100
AcDbCircle
 10
3.825660915830781
 20
-2.536031052538367
 30
0.0
 40
0.191522784217895
100
AcDbArc
 50
201.03301837874
 51
270.0
1001
REVIT
1002
{
1070
     1
1000
23081
1002
}
1002
{
1070
     2
1000
-2001160
1002
}
  0
LWPOLYLINE
  5
272
330
230
100
AcDbEntity
  8
0484.000
100
AcDbPolyline
 90
        9
 70
   128
 43
0.0
 10
7.085944701810134
 20
-0.0000019192871815
 10
7.106018603213932
 20
-0.0021049446186737
 10
7.122996267715748
 20
-0.0071503047876873
 10
7.136926314757374
 20
-0.013885653553501
 10
7.158461847280811
 20
-0.030543547687895
 10
7.171216226185791
 20
-0.0462825897924699
 10
7.17858519958019
 20
-0.0594944840273246
 10
7.185834174164639
 20
-0.081051179692762
 10
7.18817116547332
 20
-0.1024582877463417
1001
REVIT
1002
{
1070
     2
1000
-2001160
1002
}
  0
LWPOLYLINE
  5
273
330
230
100
AcDbEntity
  8
0484.000
100
AcDbPolyline
 90
       10
 70
   128
 43
0.0
 10
-1.982862921313603
 20
0.0
 10
0.0514112360622292
 20
0.0
 10
1.980191814076214
 20
0.0
 10
3.703408853133062
 20
0.0
 10
5.134220884183903
 20
0.0
 10
6.203466878458918
 20
0.0
 10
6.862184748146724
 20
0.0
 10
7.085316645911461
 20
0.0
 10
6.862184748146702
 20
0.0
 10
6.824428745829791
 20
0.0
1001
REVIT
1002
{
1070
     2
1000
-2001160
1002
}
  0
LWPOLYLINE
  5
274
330
230
100
AcDbEntity
  8
0484.000
100
AcDbPolyline
 90
        8
 70
   128
 43
0.0
 10
7.535059300560604
 20
-0.5073355433474506
 10
7.527147712928481
 20
-0.5853824540122873
 10
7.503703667975678
 20
-0.6603277854843971
 10
7.465654123933923
 20
-0.7290782658568941
 10
7.415071933179277
 20
-0.7882910023119597
 10
7.370180394746689
 20
-0.8252463769736589
 10
7.29351640907587
 20
-0.8672569799724122
 10
7.213665495717336
 20
-0.8903577649069355
1001
REVIT
1002
{
1070
     2
1000
-2001160
1002
}
  0
LWPOLYLINE
  5
275
330
230
100
AcDbEntity
  8
0484.000
100
AcDbPolyline
 90
        9
 70
   128
 43
0.0
 10
7.377670639964108
 20
-0.3316252587581077
 10
7.403601762654758
 20
-0.3364668513439547
 10
7.428553968992034
 20
-0.3451264850254879
 10
7.45151465069491
 20
-0.3571436370749391
 10
7.486822871021217
 20
-0.3859792249904577
 10
7.507642912110497
 20
-0.4127761500239827
 10
7.519630429793615
 20
-0.4351084794301513
 10
7.531359493314234
 20
-0.4713583722154856
 10
7.535059300560604
 20
-0.5073355433474491
1001
REVIT
1002
{
1070
     2
1000
-2001160
1002
}
  0
LWPOLYLINE
  5
276
330
230
100
AcDbEntity
  8
0484.000
100
AcDbPolyline
 90
        6
 70
   128
 43
0.0
 10
7.307900079335659
 20
-0.3087777013534597
 10
7.25882579851244
 20
-0.271279288019933
 10
7.228605486063827
 20
-0.2346192650376743
 10
7.211109770536879
 20
-0.2037575539468146
 10
7.193836760508958
 20
-0.1532972105254038
 10
7.18817116547332
 20
-0.1024582877463419
1001
REVIT
1002
{
1070
     2
1000
-2001160
1002
}
  0
LWPOLYLINE
  5
277
330
230
100
AcDbEntity
  8
0484.000
100
AcDbPolyline
 90
        3
 70
   128
 43
0.0
 10
7.307900079335659
 20
-0.3087777013534593
 10
7.342044204792841
 20
-0.3239617987774669
 10
7.377670639964108
 20
-0.3316252587581076
1001
REVIT
1002
{
1070
     2
1000
-2001160
1002
}
  0
SPLINE
  5
278
330
230
100
AcDbEntity
  8
0484.000
100
AcDbSpline
210
0.0
220
0.0
230
1.0
 70
    24
 71
     3
 72
    10
 73
     6
 74
     0
 42
0.000000001
 43
0.0000000001
 40
0.5
 40
0.5
 40
0.5
 40
0.5
 40
0.5714285714285714
 40
0.625
 40
0.6752643768781227
 40
0.6752643768781227
 40
0.6752643768781227
 40
0.6752643768781227
 10
7.213665495717329
 20
-0.8903577649069337
 30
0.0
 10
7.213633151550212
 20
-0.8903577649069337
 30
0.0
 10
7.079190587820463
 20
-0.8903577649069337
 30
0.0
 10
6.573169381470535
 20
-0.8903577649069344
 30
0.0
 10
6.121750788159729
 20
-0.8903577649069339
 30
0.0
 10
5.870506178343944
 20
-0.8903577649069339
 30
0.0
1001
REVIT
1002
{
1070
     2
1000
-2001160
1002
}
  0
SPLINE
  5
279
330
230
100
AcDbEntity
  8
0484.000
100
AcDbSpline
210
0.0
220
0.0
230
1.0
 70
    24
 71
     3
 72
     9
 73
     5
 74
     0
 42
0.000000001
 43
0.0000000001
 40
0.7975654411287828
 40
0.7975654411287828
 40
0.7975654411287828
 40
0.7975654411287828
 40
0.8928571428571427
 40
0.9555115810241122
 40
0.9555115810241122
 40
0.9555115810241122
 40
0.9555115810241122
 10
3.503090484119141
 20
-0.8903577649069339
 30
0.0
 10
2.764935086804698
 20
-0.8903577649069346
 30
0.0
 10
1.404641312059304
 20
-0.890357764906936
 30
0.0
 10
-0.0974515592639236
 20
-0.8903577649069335
 30
0.0
 10
-0.698958387884801
 20
-0.8903577649069337
 30
0.0
1001
REVIT
1002
{
1070
     2
1000
-2001160
1002
}
  0
LINE
  5
27A
330
230
100
AcDbEntity
  8
0484.000
100
AcDbLine
 10
6.048387078686573
 20
0.0008266771271079
 30
0.0
 11
6.048387078686573
 21
-0.399054564902288
 31
0.0
1001
REVIT
1002
{
1070
     1
1000
20425
1002
}
1002
{
1070
     2
1000
-2001160
1002
}
  0
ARC
  5
27B
330
230
100
AcDbEntity
  8
0484.000
100
AcDbCircle
 10
5.822748730911811
 20
-0.3990545649022864
 30
0.0
 40
0.2256383477747573
100
AcDbArc
 50
282.2193474939005
 51
359.9999999999996
1001
REVIT
1002
{
1070
     1
1000
20464
1002
}
1002
{
1070
     2
1000
-2001160
1002
}
  0
LINE
  5
27C
330
230
100
AcDbEntity
  8
0484.000
100
AcDbLine
 10
5.870506178343951
 20
-0.6195809583369245
 30
0.0
 11
5.870506178343951
 21
-1.482228320890079
 31
0.0
1001
REVIT
1002
{
1070
     1
1000
20517
1002
}
1002
{
1070
     2
1000
-2001160
1002
}
  0
ARC
  5
27D
330
230
100
AcDbEntity
  8
0484.000
100
AcDbCircle
 10
4.303983629068092
 20
-1.482228320890071
 30
0.0
 40
1.566522549275863
100
AcDbArc
 50
310.6660917651174
 51
0.0000000000002354
1001
REVIT
1002
{
1070
     1
1000
20557
1002
}
1002
{
1070
     2
1000
-2001160
1002
}
  0
LINE
  5
27E
330
230
100
AcDbEntity
  8
0484.000
100
AcDbLine
 10
3.620506178343951
 20
0.0008266771270998
 30
0.0
 11
3.620506178343951
 21
-0.3536520721363336
 31
0.0
1001
REVIT
1002
{
1070
     1
1000
20609
1002
}
1002
{
1070
     2
1000
-2001160
1002
}
  0
ARC
  5
27F
330
230
100
AcDbEntity
  8
0484.000
100
AcDbCircle
 10
3.29323544833339
 20
-0.353652072136332
 30
0.0
 40
0.3272707300105632
100
AcDbArc
 50
314.4818784462623
 51
359.9999999999998
1001
REVIT
1002
{
1070
     1
1000
20653
1002
}
1002
{
1070
     2
1000
-2001160
1002
}
  0
ARC
  5
280
330
230
100
AcDbEntity
  8
0484.000
100
AcDbCircle
 10
3.682103930696676
 20
-0.7496179477994393
 30
0.0
 40
0.2277136582970534
100
AcDbArc
 50
134.4818784462614
 51
218.1743196368444
1001
REVIT
1002
{
1070
     1
1000
20687
1002
}
1002
{
1070
     2
1000
-2001160
1002
}
  0
ARC
  5
281
330
230
100
AcDbEntity
  8
0484.000
100
AcDbCircle
 10
6.131057708270034
 20
-1.51535776490698
 30
0.0
 40
2.701265764639101
100
AcDbArc
 50
166.6220797352962
 51
193.3779202647041
1001
REVIT
1002
{
1070
     1
1000
20761
1002
}
1002
{
1070
     2
1000
-2001160
1002
}
  0
ARC
  5
282
330
230
100
AcDbEntity
  8
0484.000
100
AcDbCircle
 10
7.045786131423724
 20
-1.297811191564243
 30
0.0
 40
3.641507541895565
100
AcDbArc
 50
193.377920264704
 51
201.0330183787401
1001
REVIT
1002
{
1070
     1
1000
20812
1002
}
1002
{
1070
     2
1000
-2001160
1002
}
  0
LINE
  5
283
330
230
100
AcDbEntity
  8
0484.000
100
AcDbLine
 10
5.170755327910093
 20
-2.727553836756261
 30
0.0
 11
3.825660915830781
 21
-2.727553836756266
 31
0.0
1001
REVIT
1002
{
1070
     1
1000
20907
1002
}
1002
{
1070
     2
1000
-2001160
1002
}
  0
ARC
  5
284
330
230
100
AcDbEntity
  8
0484.000
100
AcDbCircle
 10
5.170755327910093
 20
-2.491150534090625
 30
0.0
 40
0.2364033026656357
100
AcDbArc
 50
270.0000000000008
 51
310.6660917651174
1001
REVIT
1002
{
1070
     1
1000
20966
1002
}
1002
{
1070
     2
1000
-2001160
1002
}
  0
ARC
  5
285
330
230
100
AcDbEntity
  8
0484.000
100
AcDbCircle
 10
3.825660915830781
 20
-2.536031052538367
 30
0.0
 40
0.191522784217895
100
AcDbArc
 50
201.0330183787402
 51
270.0000000000008
1001
REVIT
1002
{
1070
     1
1000
21012
1002
}
1002
{
1070
     2
1000
-2001160
1002
}
  0
LINE
  5
286
330
230
100
AcDbEntity
  8
0484.000
100
AcDbLine
 10
7.475288697508332
 20
-0.711669869038842
 30
0.0
 11
7.475288697508332
 21
-1.464030784198559
 31
0.0
1001
REVIT
1002
{
1070
     1
1000
23222
1002
}
1002
{
1070
     2
1000
-2001160
1002
}
  0
LINE
  5
287
330
230
100
AcDbEntity
  8
0484.000
100
AcDbLine
 10
7.414981318294238
 20
-1.806050927524221
 30
0.0
 11
5.342854226352997
 21
-7.499173322872935
 31
0.0
1001
REVIT
1002
{
1070
     1
1000
23223
1002
}
1002
{
1070
     2
1000
-2001160
1002
}
  0
ARC
  5
288
330
230
100
AcDbEntity
  8
0484.000
100
AcDbCircle
 10
6.475288697508325
 20
-1.464030784198557
 30
0.0
 40
1.0
100
AcDbArc
 50
339.9999999999999
 51
0.0
1001
REVIT
1002
{
1070
     1
1000
23224
1002
}
1002
{
1070
     2
1000
-2001160
1002
}
  0
ENDBLK
  5
232
330
230
100
AcDbEntity
  8
0
100
AcDbBlockEnd
  0
BLOCK
  5
28B
330
28A
100
AcDbEntity
  8
0
100
AcDbBlockBegin
  2
AMSTD_Estate_0484.000_Plan View
 70
     0
 10
0.0
 20
0.0
 30
0.0
  3
AMSTD_Estate_0484.000_Plan View
  1

  0
SPLINE
  5
2F6
330
28A
100
AcDbEntity
  8
0484.000
100
AcDbSpline
210
0.0
220
0.0
230
1.0
 70
     8
 71
     3
 72
    27
 73
    23
 74
     0
 42
0.000000001
 43
0.0000000001
 40
0.0
 40
0.0
 40
0.0
 40
0.0
 40
0.0833333333333333
 40
0.1666666666666666
 40
0.2083333333333333
 40
0.25
 40
0.2916666666666666
 40
0.3333333333333333
 40
0.375
 40
0.4166666666666666
 40
0.4583333333333333
 40
0.5
 40
0.5416666666666666
 40
0.5833333333333333
 40
0.625
 40
0.6666666666666666
 40
0.7083333333333333
 40
0.75
 40
0.7916666666666666
 40
0.8333333333333332
 40
0.9166666666666666
 40
1.0
 40
1.0
 40
1.0
 40
1.0
 10
5.453884952189349
 20
6.622602706118858
 30
0.0
 10
5.185101339950485
 20
6.779275858198236
 30
0.0
 10
4.634435121317023
 20
7.067509927652519
 30
0.0
 10
3.915631442886976
 20
7.364423073992941
 30
0.0
 10
3.318208112608001
 20
7.56500386346806
 30
0.0
 10
2.858623635817465
 20
7.697060737626753
 30
0.0
 10
2.391670145940253
 20
7.809603637357486
 30
0.0
 10
1.922225357199373
 20
7.901495467582375
 30
0.0
 10
1.44777323959587
 20
7.972837889945115
 30
0.0
 10
0.9660030720797116
 20
8.024374176269386
 30
0.0
 10
0.4817760142852823
 20
8.055506181020195
 30
0.0
 10
-0.0000000000000036
 20
8.065996909489914
 30
0.0
 10
-0.481776014285293
 20
8.055506181020195
 30
0.0
 10
-0.9660030720797259
 20
8.024374176269386
 30
0.0
 10
-1.447773239595882
 20
7.972837889945108
 30
0.0
 10
-1.922225357199391
 20
7.901495467582375
 30
0.0
 10
-2.39167014594027
 20
7.809603637357486
 30
0.0
 10
-2.858623635817482
 20
7.697060737626753
 30
0.0
 10
-3.318208112608019
 20
7.56500386346806
 30
0.0
 10
-3.915631442886994
 20
7.364423073992941
 30
0.0
 10
-4.634435121317037
 20
7.067509927652519
 30
0.0
 10
-5.185101339950501
 20
6.779275858198236
 30
0.0
 10
-5.453884952189365
 20
6.622602706118858
 30
0.0
1001
REVIT
1002
{
1070
     1
1000
19899
1002
}
1002
{
1070
     2
1000
-2001160
1002
}
  0
ARC
  5
2F7
330
28A
100
AcDbEntity
  8
0484.000
100
AcDbCircle
 10
-5.541142889601579
 20
5.297047585558903
 30
0.0
 40
1.328424000567605
100
AcDbArc
 50
86.23379760253216
 51
118.450496825482
1001
REVIT
1002
{
1070
     1
1000
19899
1002
}
1002
{
1070
     2
1000
-2001160
1002
}
  0
ARC
  5
2F8
330
28A
100
AcDbEntity
  8
0484.000
100
AcDbCircle
 10
-3.895687283042759
 20
2.260241288186204
 30
0.0
 40
4.78236618898338
100
AcDbArc
 50
118.4504968254822
 51
143.5495031745173
1001
REVIT
1002
{
1070
     1
1000
19899
1002
}
1002
{
1070
     2
1000
-2001160
1002
}
  0
ARC
  5
2F9
330
28A
100
AcDbEntity
  8
0484.000
100
AcDbCircle
 10
-7.079027488560011
 20
4.61153551001372
 30
0.0
 40
0.8248114664732655
100
AcDbArc
 50
143.549503174518
 51
184.8502472899977
1001
REVIT
1002
{
1070
     1
1000
19899
1002
}
1002
{
1070
     2
1000
-2001160
1002
}
  0
SPLINE
  5
2FA
330
28A
100
AcDbEntity
  8
0484.000
100
AcDbSpline
210
0.0
220
0.0
230
1.0
 70
     8
 71
     3
 72
    25
 73
    21
 74
     0
 42
0.000000001
 43
0.0000000001
 40
0.0
 40
0.0
 40
0.0
 40
0.0
 40
0.0833333333333333
 40
0.1666666666666666
 40
0.25
 40
0.2916666666666666
 40
0.3333333333333333
 40
0.375
 40
0.4166666666666666
 40
0.4583333333333333
 40
0.5
 40
0.5416666666666666
 40
0.5833333333333333
 40
0.625
 40
0.6666666666666666
 40
0.7083333333333333
 40
0.75
 40
0.8333333333333332
 40
0.9166666666666666
 40
1.0
 40
1.0
 40
1.0
 40
1.0
 10
-7.900885381228144
 20
4.541796285148382
 30
0.0
 10
-8.081791224995569
 20
4.317142373764152
 30
0.0
 10
-8.414611513584368
 20
3.857139420370028
 30
0.0
 10
-8.825718299078626
 20
3.138161447248155
 30
0.0
 10
-9.097744540543349
 20
2.507088895005121
 30
0.0
 10
-9.27087934331444
 20
1.988783961991519
 30
0.0
 10
-9.376842557041481
 20
1.598247871902142
 30
0.0
 10
-9.459130810099001
 20
1.203611413069939
 30
0.0
 10
-9.518551161327781
 20
0.8030733976862158
 30
0.0
 10
-9.554440079208511
 20
0.4005455607341837
 30
0.0
 10
-9.566529960395708
 20
0.0000000000000799
 30
0.0
 10
-9.554440079208522
 20
-0.4005455607340185
 30
0.0
 10
-9.51855116132781
 20
-0.8030733976860684
 30
0.0
 10
-9.459130810099015
 20
-1.203611413069779
 30
0.0
 10
-9.376842557041523
 20
-1.598247871901978
 30
0.0
 10
-9.270879343314469
 20
-1.988783961991371
 30
0.0
 10
-9.097744540543406
 20
-2.507088895004972
 30
0.0
 10
-8.825718299078694
 20
-3.138161447248027
 30
0.0
 10
-8.414611513584446
 20
-3.857139420369888
 30
0.0
 10
-8.081791224995658
 20
-4.317142373764022
 30
0.0
 10
-7.900885381228238
 20
-4.541796285148246
 30
0.0
1001
REVIT
1002
{
1070
     1
1000
19899
1002
}
1002
{
1070
     2
1000
-2001160
1002
}
  0
ARC
  5
2FB
330
28A
100
AcDbEntity
  8
0484.000
100
AcDbCircle
 10
-7.079027488560043
 20
-4.611535510013668
 30
0.0
 40
0.824811466473265
100
AcDbArc
 50
175.1497527100017
 51
216.4504968254809
1001
REVIT
1002
{
1070
     1
1000
19899
1002
}
1002
{
1070
     2
1000
-2001160
1002
}
  0
ARC
  5
2FC
330
28A
100
AcDbEntity
  8
0484.000
100
AcDbCircle
 10
-3.895687283042809
 20
-2.260241288186216
 30
0.0
 40
4.782366188983319
100
AcDbArc
 50
216.4504968254812
 51
241.5495031745167
1001
REVIT
1002
{
1070
     1
1000
19899
1002
}
1002
{
1070
     2
1000
-2001160
1002
}
  0
ARC
  5
2FD
330
28A
100
AcDbEntity
  8
0484.000
100
AcDbCircle
 10
-5.541142889601612
 20
-5.297047585558862
 30
0.0
 40
1.328424000567602
100
AcDbArc
 50
241.5495031745168
 51
273.7662023974658
1001
REVIT
1002
{
1070
     1
1000
19899
1002
}
1002
{
1070
     2
1000
-2001160
1002
}
  0
SPLINE
  5
2FE
330
28A
100
AcDbEntity
  8
0484.000
100
AcDbSpline
210
0.0
220
0.0
230
1.0
 70
     8
 71
     3
 72
    27
 73
    23
 74
     0
 42
0.000000001
 43
0.0000000001
 40
0.0
 40
0.0
 40
0.0
 40
0.0
 40
0.0833333333333333
 40
0.1666666666666666
 40
0.2083333333333333
 40
0.25
 40
0.2916666666666666
 40
0.3333333333333333
 40
0.375
 40
0.4166666666666666
 40
0.4583333333333333
 40
0.5
 40
0.5416666666666666
 40
0.5833333333333333
 40
0.625
 40
0.6666666666666666
 40
0.7083333333333333
 40
0.75
 40
0.7916666666666666
 40
0.8333333333333332
 40
0.9166666666666666
 40
1.0
 40
1.0
 40
1.0
 40
1.0
 10
-5.45388495218953
 20
-6.622602706118749
 30
0.0
 10
-5.18510133995067
 20
-6.779275858198134
 30
0.0
 10
-4.634435121317214
 20
-7.067509927652432
 30
0.0
 10
-3.915631442887172
 20
-7.364423073992872
 30
0.0
 10
-3.318208112608195
 20
-7.565003863467994
 30
0.0
 10
-2.858623635817657
 20
-7.697060737626705
 30
0.0
 10
-2.391670145940445
 20
-7.809603637357442
 30
0.0
 10
-1.922225357199561
 20
-7.901495467582345
 30
0.0
 10
-1.44777323959606
 20
-7.972837889945084
 30
0.0
 10
-0.9660030720799017
 20
-8.02437417626937
 30
0.0
 10
-0.4817760142854688
 20
-8.055506181020197
 30
0.0
 10
-0.000000000000183
 20
-8.065996909489916
 30
0.0
 10
0.48177601428511
 20
-8.0555061810202
 30
0.0
 10
0.9660030720795429
 20
-8.024374176269406
 30
0.0
 10
1.447773239595708
 20
-7.972837889945123
 30
0.0
 10
1.922225357199215
 20
-7.901495467582405
 30
0.0
 10
2.3916701459401
 20
-7.809603637357517
 30
0.0
 10
2.858623635817311
 20
-7.697060737626811
 30
0.0
 10
3.318208112607848
 20
-7.565003863468108
 30
0.0
 10
3.91563144288683
 20
-7.364423073993004
 30
0.0
 10
4.634435121316887
 20
-7.067509927652574
 30
0.0
 10
5.185101339950362
 20
-6.779275858198305
 30
0.0
 10
5.453884952189232
 20
-6.622602706118938
 30
0.0
1001
REVIT
1002
{
1070
     1
1000
19899
1002
}
1002
{
1070
     2
1000
-2001160
1002
}
  0
ARC
  5
2FF
330
28A
100
AcDbEntity
  8
0484.000
100
AcDbCircle
 10
5.541142889600557
 20
-5.297047585558908
 30
0.0
 40
1.32842400056763
100
AcDbArc
 50
266.2337976025701
 51
298.4504968254812
1001
REVIT
1002
{
1070
     1
1000
19899
1002
}
1002
{
1070
     2
1000
-2001160
1002
}
  0
ARC
  5
300
330
28A
100
AcDbEntity
  8
0484.000
100
AcDbCircle
 10
3.895687283041819
 20
-2.260241288186296
 30
0.0
 40
4.78236618898329
100
AcDbArc
 50
298.4504968254815
 51
323.549503174517
1001
REVIT
1002
{
1070
     1
1000
19899
1002
}
1002
{
1070
     2
1000
-2001160
1002
}
  0
ARC
  5
301
330
28A
100
AcDbEntity
  8
0484.000
100
AcDbCircle
 10
7.079027488558999
 20
-4.611535510013757
 30
0.0
 40
0.8248114664732668
100
AcDbArc
 50
323.5495031745174
 51
4.850247289921081
1001
REVIT
1002
{
1070
     1
1000
19899
1002
}
1002
{
1070
     2
1000
-2001160
1002
}
  0
SPLINE
  5
302
330
28A
100
AcDbEntity
  8
0484.000
100
AcDbSpline
210
0.0
220
0.0
230
1.0
 70
     8
 71
     3
 72
    25
 73
    21
 74
     0
 42
0.000000001
 43
0.0000000001
 40
0.0
 40
0.0
 40
0.0
 40
0.0
 40
0.0833333333333333
 40
0.1666666666666666
 40
0.25
 40
0.2916666666666666
 40
0.3333333333333333
 40
0.375
 40
0.4166666666666666
 40
0.4583333333333333
 40
0.5
 40
0.5416666666666666
 40
0.5833333333333333
 40
0.625
 40
0.6666666666666666
 40
0.7083333333333333
 40
0.75
 40
0.8333333333333332
 40
0.9166666666666666
 40
1.0
 40
1.0
 40
1.0
 40
1.0
 10
7.900885381227219
 20
-4.541796285149525
 30
0.0
 10
8.081791224994745
 20
-4.317142373765259
 30
0.0
 10
8.414611513583725
 20
-3.857139420371042
 30
0.0
 10
8.825718299078204
 20
-3.138161447249023
 30
0.0
 10
9.097744540543075
 20
-2.507088895005837
 30
0.0
 10
9.270879343314263
 20
-1.988783961992101
 30
0.0
 10
9.376842557041378
 20
-1.598247871902611
 30
0.0
 10
9.459130810098926
 20
-1.203611413070307
 30
0.0
 10
9.51855116132776
 20
-0.8030733976864805
 30
0.0
 10
9.554440079208511
 20
-0.4005455607343169
 30
0.0
 10
9.566529960395715
 20
-0.000000000000103
 30
0.0
 10
9.554440079208518
 20
0.4005455607341056
 30
0.0
 10
9.518551161327778
 20
0.8030733976862656
 30
0.0
 10
9.459130810098969
 20
1.203611413070095
 30
0.0
 10
9.37684255704142
 20
1.598247871902398
 30
0.0
 10
9.270879343314319
 20
1.988783961991888
 30
0.0
 10
9.09774454054315
 20
2.50708889500564
 30
0.0
 10
8.825718299078307
 20
3.138161447248823
 30
0.0
 10
8.414611513583832
 20
3.857139420370859
 30
0.0
 10
8.081791224994869
 20
4.317142373765083
 30
0.0
 10
7.900885381227347
 20
4.541796285149349
 30
0.0
1001
REVIT
1002
{
1070
     1
1000
19899
1002
}
1002
{
1070
     2
1000
-2001160
1002
}
  0
ARC
  5
303
330
28A
100
AcDbEntity
  8
0484.000
100
AcDbCircle
 10
7.079027488559017
 20
4.61153551001372
 30
0.0
 40
0.8248114664732753
100
AcDbArc
 50
355.1497527100773
 51
36.45049682548189
1001
REVIT
1002
{
1070
     1
1000
19899
1002
}
1002
{
1070
     2
1000
-2001160
1002
}
  0
ARC
  5
304
330
28A
100
AcDbEntity
  8
0484.000
100
AcDbCircle
 10
3.895687283041826
 20
2.260241288186268
 30
0.0
 40
4.782366188983293
100
AcDbArc
 50
36.45049682548189
 51
61.54950317451735
1001
REVIT
1002
{
1070
     1
1000
19899
1002
}
1002
{
1070
     2
1000
-2001160
1002
}
  0
ARC
  5
305
330
28A
100
AcDbEntity
  8
0484.000
100
AcDbCircle
 10
5.541142889600598
 20
5.297047585558917
 30
0.0
 40
1.328424000567595
100
AcDbArc
 50
61.54950317451735
 51
93.76620239742999
1001
REVIT
1002
{
1070
     1
1000
19899
1002
}
1002
{
1070
     2
1000
-2001160
1002
}
  0
ELLIPSE
  5
306
330
28A
100
AcDbEntity
  8
0484.000
100
AcDbEllipse
 10
0.0
 20
0.0000000000000053
 30
0.0
 11
-8.031249999999998
 21
0.0000000000000576
 31
0.0
210
0.0
220
0.0
230
1.0
 40
0.8132295719844361
 41
0.0
 42
6.28318530717958
1001
REVIT
1002
{
1070
     1
1000
19964
1002
}
1002
{
1070
     2
1000
-2001160
1002
}
1002
{
1070
     3
1000
-2009521
1002
}
  0
CIRCLE
  5
307
330
28A
100
AcDbEntity
  8
0484.000
100
AcDbCircle
 10
0.0
 20
0.0
 30
0.0
 40
0.8634174817816806
1001
REVIT
1002
{
1070
     1
1000
20050
1002
}
1002
{
1070
     2
1000
-2001160
1002
}
1002
{
1070
     3
1000
-2009521
1002
}
  0
ELLIPSE
  5
308
330
28A
100
AcDbEntity
  8
0484.000
100
AcDbEllipse
 10
0.0
 20
0.0
 30
0.0
 11
-5.999999999999998
 21
0.0000000000000057
 31
0.0
210
0.0
220
0.0
230
1.0
 40
0.7500000000000001
 41
0.0
 42
6.28318530717958
1001
REVIT
1002
{
1070
     1
1000
20067
1002
}
1002
{
1070
     2
1000
-2001160
1002
}
1002
{
1070
     3
1000
-2009521
1002
}
  0
SPLINE
  5
309
330
28A
100
AcDbEntity
  8
0484.000
100
AcDbSpline
210
0.0
220
0.0
230
1.0
 70
     8
 71
     3
 72
    18
 73
    14
 74
     0
 42
0.000000001
 43
0.0000000001
 40
0.0
 40
0.0
 40
0.0
 40
0.0
 40
0.2855993321445264
 40
0.5711986642890528
 40
0.8567979964335791
 40
1.142397328578105
 40
1.427996660722631
 40
1.713595992867158
 40
1.999195325011684
 40
2.28479465715621
 40
2.570393989300737
 40
2.855993321445263
 40
3.14159265358979
 40
3.14159265358979
 40
3.14159265358979
 40
3.14159265358979
 10
5.0
 20
-0.0000000000000213
 30
0.0
 10
5.0
 20
0.3014659617080895
 30
0.0
 10
4.886719921199322
 20
0.9054843825928777
 30
0.0
 10
4.351145449388347
 20
1.798031076858915
 30
0.0
 10
3.437697073250065
 20
2.595632150378836
 30
0.0
 10
2.203551590467597
 20
3.193738298048426
 30
0.0
 10
0.7588364934752807
 20
3.513204731140614
 30
0.0
 10
-0.7588364934752328
 20
3.513204731140621
 30
0.0
 10
-2.203551590467556
 20
3.193738298048447
 30
0.0
 10
-3.437697073250031
 20
2.595632150378872
 30
0.0
 10
-4.351145449388321
 20
1.798031076858958
 30
0.0
 10
-4.886719921199304
 20
0.9054843825929275
 30
0.0
 10
-4.999999999999994
 20
0.3014659617081428
 30
0.0
 10
-4.999999999999998
 20
0.0000000000000302
 30
0.0
1001
REVIT
1002
{
1070
     1
1000
21701
1002
}
1002
{
1070
     2
1000
-2001160
1002
}
  0
SPLINE
  5
30A
330
28A
100
AcDbEntity
  8
0484.000
100
AcDbSpline
210
0.0
220
0.0
230
1.0
 70
     8
 71
     3
 72
    18
 73
    14
 74
     0
 42
0.000000001
 43
0.0000000001
 40
3.14159265358979
 40
3.14159265358979
 40
3.14159265358979
 40
3.14159265358979
 40
3.427191985734316
 40
3.712791317878842
 40
3.998390650023369
 40
4.283989982167895
 40
4.569589314312421
 40
4.855188646456948
 40
5.140787978601474
 40
5.426387310746001
 40
5.711986642890527
 40
5.997585975035053
 40
6.28318530717958
 40
6.28318530717958
 40
6.28318530717958
 40
6.28318530717958
 10
-4.999999999999998
 20
0.0000000000000302
 30
0.0
 10
-5.0
 20
-0.3014659617080824
 30
0.0
 10
-4.886719921199324
 20
-0.9054843825928671
 30
0.0
 10
-4.351145449388352
 20
-1.798031076858896
 30
0.0
 10
-3.437697073250076
 20
-2.595632150378833
 30
0.0
 10
-2.203551590467609
 20
-3.193738298048423
 30
0.0
 10
-0.7588364934752967
 20
-3.513204731140614
 30
0.0
 10
0.7588364934752221
 20
-3.51320473114062
 30
0.0
 10
2.203551590467544
 20
-3.193738298048449
 30
0.0
 10
3.437697073250022
 20
-2.595632150378882
 30
0.0
 10
4.351145449388317
 20
-1.79803107685896
 30
0.0
 10
4.886719921199304
 20
-0.9054843825929363
 30
0.0
 10
4.999999999999996
 20
-0.3014659617081516
 30
0.0
 10
5.0
 20
-0.0000000000000391
 30
0.0
1001
REVIT
1002
{
1070
     1
1000
21702
1002
}
1002
{
1070
     2
1000
-2001160
1002
}
  0
ELLIPSE
  5
30B
330
28A
100
AcDbEntity
  8
0484.000
100
AcDbEllipse
 10
0.0
 20
-6.342060484654281
 30
0.0
 11
-0.2741540619277771
 21
0.0000000000000003
 31
0.0
210
0.0
220
0.0
230
1.0
 40
0.537624547785328
 41
0.0
 42
6.28318530717958
1001
REVIT
1002
{
1070
     1
1000
21766
1002
}
1002
{
1070
     2
1000
-2001160
1002
}
  0
ELLIPSE
  5
30C
330
28A
100
AcDbEntity
  8
0484.000
100
AcDbEllipse
 10
-0.8437499999999982
 20
-6.326435484654277
 30
0.0
 11
-0.2741540619277773
 21
0.0000000000000003
 31
0.0
210
0.0
220
0.0
230
1.0
 40
0.5376245477853276
 41
0.0
 42
6.28318530717958
1001
REVIT
1002
{
1070
     1
1000
21821
1002
}
1002
{
1070
     2
1000
-2001160
1002
}
  0
ELLIPSE
  5
30D
330
28A
100
AcDbEntity
  8
0484.000
100
AcDbEllipse
 10
0.8437499999990141
 20
-6.326435484654277
 30
0.0
 11
0.2741540619277771
 21
0.0
 31
0.0
210
0.0
220
0.0
230
1.0
 40
0.5376245477853279
 41
0.0
 42
6.28318530717958
1001
REVIT
1002
{
1070
     1
1000
21969
1002
}
1002
{
1070
     2
1000
-2001160
1002
}
  0
ENDBLK
  5
28C
330
28A
100
AcDbEntity
  8
0
100
AcDbBlockEnd
  0
BLOCK
  5
320
330
31F
100
AcDbEntity
  8
0
100
AcDbBlockBegin
  2
*D11
 70
     1
 10
0.0
 20
0.0
 30
0.0
  3
*D11
  1

  0
LINE
  5
321
330
31F
100
AcDbEntity
  8
DIM
 62
     0
440
 16777216
370
    -2
100
AcDbLine
 10
20.29424116246966
 20
41.05060936649619
 30
0.0
 11
20.29424116246966
 21
52.99600230114669
 31
0.0
  0
LINE
  5
322
330
31F
100
AcDbEntity
  8
DIM
 62
     0
440
 16777216
370
    -2
100
AcDbLine
 10
39.54424116246966
 20
41.05060936649619
 30
0.0
 11
39.54424116246966
 21
52.99600230114669
 31
0.0
  0
LINE
  5
323
330
31F
100
AcDbEntity
  8
DIM
 62
     0
440
 16777216
370
    -2
100
AcDbLine
 10
20.79424116246966
 20
52.63600230114668
 30
0.0
 11
28.40590782913633
 21
52.63600230114668
 31
0.0
  0
LINE
  5
324
330
31F
100
AcDbEntity
  8
DIM
 62
     0
440
 16777216
370
    -2
100
AcDbLine
 10
39.04424116246966
 20
52.63600230114668
 30
0.0
 11
31.432574495803
 21
52.63600230114668
 31
0.0
  0
SOLID
  5
325
330
31F
100
AcDbEntity
  8
DIM
 62
     0
440
 16777216
100
AcDbTrace
 10
20.79424116246966
 20
52.71933563448002
 30
0.0
 11
20.79424116246966
 21
52.55266896781336
 31
0.0
 12
20.29424116246966
 22
52.63600230114668
 32
0.0
 13
20.29424116246966
 23
52.63600230114668
 33
0.0
  0
SOLID
  5
326
330
31F
100
AcDbEntity
  8
DIM
 62
     0
440
 16777216
100
AcDbTrace
 10
39.04424116246966
 20
52.71933563448002
 30
0.0
 11
39.04424116246966
 21
52.55266896781336
 31
0.0
 12
39.54424116246966
 22
52.63600230114668
 32
0.0
 13
39.54424116246966
 23
52.63600230114668
 33
0.0
  0
MTEXT
  5
327
330
31F
100
AcDbEntity
  8
DIM
 62
     0
440
 16777216
100
AcDbMText
 10
29.91924116246966
 20
52.63600230114668
 30
0.0
 40
0.5
 41
0.0
 46
0.0
 71
     5
 72
     1
  1
\A1;19.2500
 73
     1
 44
1.0
  0
POINT
  5
328
330
31F
100
AcDbEntity
  8
DEFPOINTS
 62
     0
440
 16777216
100
AcDbPoint
 10
20.29424116246966
 20
40.92560936649618
 30
0.0
  0
POINT
  5
329
330
31F
100
AcDbEntity
  8
DEFPOINTS
 62
     0
440
 16777216
100
AcDbPoint
 10
39.54424116246966
 20
40.92560936649618
 30
0.0
  0
POINT
  5
32A
330
31F
100
AcDbEntity
  8
DEFPOINTS
 62
     0
440
 16777216
100
AcDbPoint
 10
39.54424116246966
 20
52.63600230114668
 30
0.0
  0
ENDBLK
  5
32B
330
31F
100
AcDbEntity
  8
0
100
AcDbBlockEnd
  0
BLOCK
  5
32D
330
32C
100
AcDbEntity
  8
0
100
AcDbBlockBegin
  2
*D12
 70
     1
 10
0.0
 20
0.0
 30
0.0
  3
*D12
  1

  0
LINE
  5
32E
330
32C
100
AcDbEntity
  8
DIM
 62
     0
440
 16777216
370
    -2
100
AcDbLine
 10
29.79424116246966
 20
49.05060936649618
 30
0.0
 11
14.27625212931335
 21
49.05060936649619
 31
0.0
  0
LINE
  5
32F
330
32C
100
AcDbEntity
  8
DIM
 62
     0
440
 16777216
370
    -2
100
AcDbLine
 10
29.79424116246966
 20
32.80060936649619
 30
0.0
 11
14.27625212931335
 21
32.8006093664962
 31
0.0
  0
LINE
  5
330
330
32C
100
AcDbEntity
  8
DIM
 62
     0
440
 16777216
370
    -2
100
AcDbLine
 10
14.63625212931335
 20
48.5506093664962
 30
0.0
 11
14.63625212931335
 21
41.35560936649619
 31
0.0
  0
LINE
  5
331
330
32C
100
AcDbEntity
  8
DIM
 62
     0
440
 16777216
370
    -2
100
AcDbLine
 10
14.63625212931335
 20
33.3006093664962
 30
0.0
 11
14.63625212931335
 21
40.49560936649619
 31
0.0
  0
SOLID
  5
332
330
32C
100
AcDbEntity
  8
DIM
 62
     0
440
 16777216
100
AcDbTrace
 10
14.55291879598002
 20
48.5506093664962
 30
0.0
 11
14.71958546264668
 21
48.5506093664962
 31
0.0
 12
14.63625212931335
 22
49.05060936649619
 32
0.0
 13
14.63625212931335
 23
49.05060936649619
 33
0.0
  0
SOLID
  5
333
330
32C
100
AcDbEntity
  8
DIM
 62
     0
440
 16777216
100
AcDbTrace
 10
14.55291879598001
 20
33.3006093664962
 30
0.0
 11
14.71958546264668
 21
33.3006093664962
 31
0.0
 12
14.63625212931335
 22
32.8006093664962
 32
0.0
 13
14.63625212931335
 23
32.8006093664962
 33
0.0
  0
MTEXT
  5
334
330
32C
100
AcDbEntity
  8
DIM
 62
     0
440
 16777216
100
AcDbMText
 10
14.63625212931334
 20
40.92560936649619
 30
0.0
 40
0.5
 41
0.0
 46
0.0
 71
     5
 72
     1
  1
\A1;16.2500
 73
     1
 44
1.0
  0
POINT
  5
335
330
32C
100
AcDbEntity
  8
DEFPOINTS
 62
     0
440
 16777216
100
AcDbPoint
 10
29.91924116246966
 20
49.05060936649618
 30
0.0
  0
POINT
  5
336
330
32C
100
AcDbEntity
  8
DEFPOINTS
 62
     0
440
 16777216
100
AcDbPoint
 10
29.91924116246966
 20
32.80060936649619
 30
0.0
  0
POINT
  5
337
330
32C
100
AcDbEntity
  8
DEFPOINTS
 62
     0
440
 16777216
100
AcDbPoint
 10
14.63625212931335
 20
32.8006093664962
 30
0.0
  0
ENDBLK
  5
338
330
32C
100
AcDbEntity
  8
0
100
AcDbBlockEnd
  0
BLOCK
  5
33A
330
339
100
AcDbEntity
  8
0
100
AcDbBlockBegin
  2
*D13
 70
     1
 10
0.0
 20
0.0
 30
0.0
  3
*D13
  1

  0
LINE
  5
33B
330
339
100
AcDbEntity
  8
DIM
 62
     0
440
 16777216
370
    -2
100
AcDbLine
 10
21.41924116246966
 20
41.05060936649619
 30
0.0
 11
21.41924116246966
 21
51.91538633043785
 31
0.0
  0
LINE
  5
33C
330
339
100
AcDbEntity
  8
DIM
 62
     0
440
 16777216
370
    -2
100
AcDbLine
 10
38.41924116246966
 20
41.05060936649619
 30
0.0
 11
38.41924116246966
 21
51.91538633043785
 31
0.0
  0
LINE
  5
33D
330
339
100
AcDbEntity
  8
DIM
 62
     0
440
 16777216
370
    -2
100
AcDbLine
 10
21.91924116246966
 20
51.55538633043786
 30
0.0
 11
28.48924116246966
 21
51.55538633043786
 31
0.0
  0
LINE
  5
33E
330
339
100
AcDbEntity
  8
DIM
 62
     0
440
 16777216
370
    -2
100
AcDbLine
 10
37.91924116246966
 20
51.55538633043786
 30
0.0
 11
31.34924116246966
 21
51.55538633043786
 31
0.0
  0
SOLID
  5
33F
330
339
100
AcDbEntity
  8
DIM
 62
     0
440
 16777216
100
AcDbTrace
 10
21.91924116246966
 20
51.63871966377119
 30
0.0
 11
21.91924116246966
 21
51.47205299710452
 31
0.0
 12
21.41924116246966
 22
51.55538633043786
 32
0.0
 13
21.41924116246966
 23
51.55538633043786
 33
0.0
  0
SOLID
  5
340
330
339
100
AcDbEntity
  8
DIM
 62
     0
440
 16777216
100
AcDbTrace
 10
37.91924116246966
 20
51.63871966377119
 30
0.0
 11
37.91924116246966
 21
51.47205299710452
 31
0.0
 12
38.41924116246966
 22
51.55538633043786
 32
0.0
 13
38.41924116246966
 23
51.55538633043786
 33
0.0
  0
MTEXT
  5
341
330
339
100
AcDbEntity
  8
DIM
 62
     0
440
 16777216
100
AcDbMText
 10
29.91924116246966
 20
51.55538633043786
 30
0.0
 40
0.5
 41
0.0
 46
0.0
 71
     5
 72
     1
  1
\A1;17.0000
 73
     1
 44
1.0
  0
POINT
  5
342
330
339
100
AcDbEntity
  8
DEFPOINTS
 62
     0
440
 16777216
100
AcDbPoint
 10
21.41924116246966
 20
40.92560936649618
 30
0.0
  0
POINT
  5
343
330
339
100
AcDbEntity
  8
DEFPOINTS
 62
     0
440
 16777216
100
AcDbPoint
 10
38.41924116246966
 20
40.92560936649618
 30
0.0
  0
POINT
  5
344
330
339
100
AcDbEntity
  8
DEFPOINTS
 62
     0
440
 16777216
100
AcDbPoint
 10
38.41924116246966
 20
51.55538633043786
 30
0.0
  0
ENDBLK
  5
345
330
339
100
AcDbEntity
  8
0
100
AcDbBlockEnd
  0
BLOCK
  5
347
330
346
100
AcDbEntity
  8
0
100
AcDbBlockBegin
  2
*D14
 70
     1
 10
0.0
 20
0.0
 30
0.0
  3
*D14
  1

  0
LINE
  5
348
330
346
100
AcDbEntity
  8
DIM
 62
     0
440
 16777216
370
    -2
100
AcDbLine
 10
29.79424116246966
 20
47.92560936649619
 30
0.0
 11
17.82586156304811
 21
47.92560936649619
 31
0.0
  0
LINE
  5
349
330
346
100
AcDbEntity
  8
DIM
 62
     0
440
 16777216
370
    -2
100
AcDbLine
 10
29.79424116246966
 20
33.92560936649619
 30
0.0
 11
17.82586156304811
 21
33.92560936649619
 31
0.0
  0
LINE
  5
34A
330
346
100
AcDbEntity
  8
DIM
 62
     0
440
 16777216
370
    -2
100
AcDbLine
 10
18.18586156304811
 20
47.42560936649619
 30
0.0
 11
18.18586156304811
 21
41.35560936649619
 31
0.0
  0
LINE
  5
34B
330
346
100
AcDbEntity
  8
DIM
 62
     0
440
 16777216
370
    -2
100
AcDbLine
 10
18.1858615630481
 20
34.42560936649619
 30
0.0
 11
18.18586156304811
 21
40.49560936649618
 31
0.0
  0
SOLID
  5
34C
330
346
100
AcDbEntity
  8
DIM
 62
     0
440
 16777216
100
AcDbTrace
 10
18.10252822971478
 20
47.42560936649619
 30
0.0
 11
18.26919489638144
 21
47.42560936649619
 31
0.0
 12
18.18586156304811
 22
47.92560936649619
 32
0.0
 13
18.18586156304811
 23
47.92560936649619
 33
0.0
  0
SOLID
  5
34D
330
346
100
AcDbEntity
  8
DIM
 62
     0
440
 16777216
100
AcDbTrace
 10
18.10252822971477
 20
34.42560936649619
 30
0.0
 11
18.26919489638144
 21
34.42560936649619
 31
0.0
 12
18.1858615630481
 22
33.92560936649619
 32
0.0
 13
18.1858615630481
 23
33.92560936649619
 33
0.0
  0
MTEXT
  5
34E
330
346
100
AcDbEntity
  8
DIM
 62
     0
440
 16777216
100
AcDbMText
 10
18.1858615630481
 20
40.92560936649619
 30
0.0
 40
0.5
 41
0.0
 46
0.0
 71
     5
 72
     1
  1
\A1;14.0000
 73
     1
 44
1.0
  0
POINT
  5
34F
330
346
100
AcDbEntity
  8
DEFPOINTS
 62
     0
440
 16777216
100
AcDbPoint
 10
29.91924116246966
 20
47.92560936649619
 30
0.0
  0
POINT
  5
350
330
346
100
AcDbEntity
  8
DEFPOINTS
 62
     0
440
 16777216
100
AcDbPoint
 10
29.91924116246966
 20
33.92560936649619
 30
0.0
  0
POINT
  5
351
330
346
100
AcDbEntity
  8
DEFPOINTS
 62
     0
440
 16777216
100
AcDbPoint
 10
18.1858615630481
 20
33.92560936649619
 30
0.0
  0
ENDBLK
  5
352
330
346
100
AcDbEntity
  8
0
100
AcDbBlockEnd
  0
BLOCK
  5
354
330
353
100
AcDbEntity
  8
0
100
AcDbBlockBegin
  2
*D15
 70
     1
 10
0.0
 20
0.0
 30
0.0
  3
*D15
  1

  0
LINE
  5
355
330
353
100
AcDbEntity
  8
DIM
 62
     0
440
 16777216
370
    -2
100
AcDbLine
 10
30.04424116246966
 20
49.05060936649618
 30
0.0
 11
43.16753244150644
 21
49.05060936649618
 31
0.0
  0
LINE
  5
356
330
353
100
AcDbEntity
  8
DIM
 62
     0
440
 16777216
370
    -2
100
AcDbLine
 10
30.04424116246966
 20
44.98810936649618
 30
0.0
 11
43.16753244150643
 21
44.98810936649618
 31
0.0
  0
LINE
  5
357
330
353
100
AcDbEntity
  8
DIM
 62
     0
440
 16777216
370
    -2
100
AcDbLine
 10
42.80753244150644
 20
48.55060936649619
 30
0.0
 11
42.80753244150644
 21
47.44935936649619
 31
0.0
  0
LINE
  5
358
330
353
100
AcDbEntity
  8
DIM
 62
     0
440
 16777216
370
    -2
100
AcDbLine
 10
42.80753244150644
 20
45.48810936649618
 30
0.0
 11
42.80753244150644
 21
46.58935936649618
 31
0.0
  0
SOLID
  5
359
330
353
100
AcDbEntity
  8
DIM
 62
     0
440
 16777216
100
AcDbTrace
 10
42.72419910817311
 20
48.55060936649619
 30
0.0
 11
42.89086577483978
 21
48.55060936649619
 31
0.0
 12
42.80753244150644
 22
49.05060936649618
 32
0.0
 13
42.80753244150644
 23
49.05060936649618
 33
0.0
  0
SOLID
  5
35A
330
353
100
AcDbEntity
  8
DIM
 62
     0
440
 16777216
100
AcDbTrace
 10
42.7241991081731
 20
45.48810936649618
 30
0.0
 11
42.89086577483977
 21
45.48810936649618
 31
0.0
 12
42.80753244150644
 22
44.98810936649618
 32
0.0
 13
42.80753244150644
 23
44.98810936649618
 33
0.0
  0
MTEXT
  5
35B
330
353
100
AcDbEntity
  8
DIM
 62
     0
440
 16777216
100
AcDbMText
 10
42.80753244150643
 20
47.01935936649619
 30
0.0
 40
0.5
 41
0.0
 46
0.0
 71
     5
 72
     1
  1
\A1;4.0625
 73
     1
 44
1.0
  0
POINT
  5
35C
330
353
100
AcDbEntity
  8
DEFPOINTS
 62
     0
440
 16777216
100
AcDbPoint
 10
29.91924116246966
 20
49.05060936649618
 30
0.0
  0
POINT
  5
35D
330
353
100
AcDbEntity
  8
DEFPOINTS
 62
     0
440
 16777216
100
AcDbPoint
 10
29.91924116246966
 20
44.98810936649618
 30
0.0
  0
POINT
  5
35E
330
353
100
AcDbEntity
  8
DEFPOINTS
 62
     0
440
 16777216
100
AcDbPoint
 10
42.80753244150644
 20
44.98810936649618
 30
0.0
  0
ENDBLK
  5
35F
330
353
100
AcDbEntity
  8
0
100
AcDbBlockEnd
  0
BLOCK
  5
361
330
360
100
AcDbEntity
  8
0
100
AcDbBlockBegin
  2
*D16
 70
     1
 10
0.0
 20
0.0
 30
0.0
  3
*D16
  1

  0
LINE
  5
362
330
360
100
AcDbEntity
  8
DIM
 62
     0
440
 16777216
370
    -2
100
AcDbLine
 10
32.66930274430039
 20
50.17021982327548
 30
0.0
 11
37.03398200836741
 21
50.17021982327548
 31
0.0
  0
LINE
  5
363
330
360
100
AcDbEntity
  8
DIM
 62
     0
440
 16777216
370
    -2
100
AcDbLine
 10
30.03846669102173
 20
47.54521982327548
 30
0.0
 11
37.0339820083674
 21
47.54521982327548
 31
0.0
  0
LINE
  5
364
330
360
100
AcDbEntity
  8
DIM
 62
     0
440
 16777216
370
    -2
100
AcDbLine
 10
36.67398200836741
 20
49.67021982327548
 30
0.0
 11
36.67398200836741
 21
49.0292019363778
 31
0.0
  0
LINE
  5
365
330
360
100
AcDbEntity
  8
DIM
 62
     0
440
 16777216
370
    -2
100
AcDbLine
 10
36.67398200836741
 20
48.04521982327549
 30
0.0
 11
36.67398200836741
 21
48.16920193637781
 31
0.0
  0
SOLID
  5
366
330
360
100
AcDbEntity
  8
DIM
 62
     0
440
 16777216
100
AcDbTrace
 10
36.59064867503408
 20
49.67021982327548
 30
0.0
 11
36.75731534170075
 21
49.67021982327548
 31
0.0
 12
36.67398200836741
 22
50.17021982327548
 32
0.0
 13
36.67398200836741
 23
50.17021982327548
 33
0.0
  0
SOLID
  5
367
330
360
100
AcDbEntity
  8
DIM
 62
     0
440
 16777216
100
AcDbTrace
 10
36.59064867503408
 20
48.04521982327549
 30
0.0
 11
36.75731534170075
 21
48.04521982327549
 31
0.0
 12
36.6739820083674
 22
47.54521982327548
 32
0.0
 13
36.6739820083674
 23
47.54521982327548
 33
0.0
  0
MTEXT
  5
368
330
360
100
AcDbEntity
  8
DIM
 62
     0
440
 16777216
100
AcDbMText
 10
36.6739820083674
 20
48.59920193637781
 30
0.0
 40
0.5
 41
0.0
 46
0.0
 71
     5
 72
     1
  1
\A1;2.6250
 73
     1
 44
1.0
  0
POINT
  5
369
330
360
100
AcDbEntity
  8
DEFPOINTS
 62
     0
440
 16777216
100
AcDbPoint
 10
32.54430274430039
 20
50.17021982327548
 30
0.0
  0
POINT
  5
36A
330
360
100
AcDbEntity
  8
DEFPOINTS
 62
     0
440
 16777216
100
AcDbPoint
 10
29.91346669102173
 20
47.54521982327548
 30
0.0
  0
POINT
  5
36B
330
360
100
AcDbEntity
  8
DEFPOINTS
 62
     0
440
 16777216
100
AcDbPoint
 10
36.6739820083674
 20
47.54521982327548
 30
0.0
  0
ENDBLK
  5
36C
330
360
100
AcDbEntity
  8
0
100
AcDbBlockEnd
  0
BLOCK
  5
36E
330
36D
100
AcDbEntity
  8
0
100
AcDbBlockBegin
  2
*D17
 70
     1
 10
0.0
 20
0.0
 30
0.0
  3
*D17
  1

  0
LINE
  5
36F
330
36D
100
AcDbEntity
  8
DIM
 62
     0
440
 16777216
370
    -2
100
AcDbLine
 10
21.41924116246966
 20
41.05060936649619
 30
0.0
 11
21.41924116246966
 21
41.28560936649621
 31
0.0
  0
LINE
  5
370
330
36D
100
AcDbEntity
  8
DIM
 62
     0
440
 16777216
370
    -2
100
AcDbLine
 10
21.79924116246966
 20
41.0506093664962
 30
0.0
 11
21.79924116246966
 21
41.28560936649621
 31
0.0
  0
LINE
  5
371
330
36D
100
AcDbEntity
  8
DIM
 62
     0
440
 16777216
370
    -2
100
AcDbLine
 10
20.91924116246966
 20
40.92560936649621
 30
0.0
 11
20.41924116246966
 21
40.92560936649621
 31
0.0
  0
LINE
  5
372
330
36D
100
AcDbEntity
  8
DIM
 62
     0
440
 16777216
370
    -2
100
AcDbLine
 10
22.29924116246966
 20
40.92560936649621
 30
0.0
 11
22.79924116246966
 21
40.92560936649621
 31
0.0
  0
SOLID
  5
373
330
36D
100
AcDbEntity
  8
DIM
 62
     0
440
 16777216
100
AcDbTrace
 10
20.91924116246966
 20
41.00894269982954
 30
0.0
 11
20.91924116246966
 21
40.84227603316287
 31
0.0
 12
21.41924116246966
 22
40.92560936649621
 32
0.0
 13
21.41924116246966
 23
40.92560936649621
 33
0.0
  0
SOLID
  5
374
330
36D
100
AcDbEntity
  8
DIM
 62
     0
440
 16777216
100
AcDbTrace
 10
22.29924116246966
 20
41.00894269982954
 30
0.0
 11
22.29924116246966
 21
40.84227603316287
 31
0.0
 12
21.79924116246966
 22
40.92560936649621
 32
0.0
 13
21.79924116246966
 23
40.92560936649621
 33
0.0
  0
MTEXT
  5
375
330
36D
100
AcDbEntity
  8
DIM
 62
     0
440
 16777216
100
AcDbMText
 10
24.10424116246966
 20
40.92560936649621
 30
0.0
 40
0.5
 41
0.0
 46
0.0
 71
     5
 72
     1
  1
\A1;0.3800
 73
     1
 44
1.0
  0
POINT
  5
376
330
36D
100
AcDbEntity
  8
DEFPOINTS
 62
     0
440
 16777216
100
AcDbPoint
 10
21.41924116246966
 20
40.92560936649618
 30
0.0
  0
POINT
  5
377
330
36D
100
AcDbEntity
  8
DEFPOINTS
 62
     0
440
 16777216
100
AcDbPoint
 10
21.79924116246966
 20
40.92560936649621
 30
0.0
  0
POINT
  5
378
330
36D
100
AcDbEntity
  8
DEFPOINTS
 62
     0
440
 16777216
100
AcDbPoint
 10
21.79924116246966
 20
40.92560936649621
 30
0.0
  0
ENDBLK
  5
379
330
36D
100
AcDbEntity
  8
0
100
AcDbBlockEnd
  0
BLOCK
  5
3A0
330
39F
100
AcDbEntity
  8
0
100
AcDbBlockBegin
  2
*D19
 70
     1
 10
0.0
 20
0.0
 30
0.0
  3
*D19
  1

  0
LINE
  5
5BA
330
39F
100
AcDbEntity
  8
DIM
 62
     0
440
 16777216
370
    -2
100
AcDbLine
 10
-9.562499999999801
 20
16.84359409545801
 30
0.0
 11
-9.562499999999801
 21
28.67148703010851
 31
0.0
  0
LINE
  5
5BB
330
39F
100
AcDbEntity
  8
DIM
 62
     0
440
 16777216
370
    -2
100
AcDbLine
 10
9.562500000000163
 20
16.84359408228761
 30
0.0
 11
9.562500000000163
 21
28.67148703010851
 31
0.0
  0
LINE
  5
5BC
330
39F
100
AcDbEntity
  8
DIM
 62
     0
440
 16777216
370
    -2
100
AcDbLine
 10
-9.382499999999801
 20
28.49148703010852
 30
0.0
 11
-0.5549999999998189
 21
28.49148703010852
 31
0.0
  0
LINE
  5
5BD
330
39F
100
AcDbEntity
  8
DIM
 62
     0
440
 16777216
370
    -2
100
AcDbLine
 10
9.382500000000163
 20
28.49148703010852
 30
0.0
 11
0.5550000000001813
 21
28.49148703010852
 31
0.0
  0
SOLID
  5
5BE
330
39F
100
AcDbEntity
  8
DIM
 62
     0
440
 16777216
100
AcDbTrace
 10
-9.382499999999801
 20
28.52148703010852
 30
0.0
 11
-9.382499999999801
 21
28.46148703010852
 31
0.0
 12
-9.562499999999801
 22
28.49148703010852
 32
0.0
 13
-9.562499999999801
 23
28.49148703010852
 33
0.0
  0
SOLID
  5
5BF
330
39F
100
AcDbEntity
  8
DIM
 62
     0
440
 16777216
100
AcDbTrace
 10
9.382500000000163
 20
28.52148703010852
 30
0.0
 11
9.382500000000163
 21
28.46148703010852
 31
0.0
 12
9.562500000000163
 22
28.49148703010852
 32
0.0
 13
9.562500000000163
 23
28.49148703010852
 33
0.0
  0
MTEXT
  5
5C0
330
39F
100
AcDbEntity
  8
DIM
 62
     0
440
 16777216
100
AcDbMText
 10
0.0000000000001812
 20
28.49148703010852
 30
0.0
 40
0.18
 41
0.0
 46
0.0
 71
     5
 72
     1
  1
\A1;19.1250
 73
     1
 44
1.0
  0
POINT
  5
5C1
330
39F
100
AcDbEntity
  8
DEFPOINTS
 62
     0
440
 16777216
100
AcDbPoint
 10
-9.562499999999801
 20
16.78109409545801
 30
0.0
  0
POINT
  5
5C2
330
39F
100
AcDbEntity
  8
DEFPOINTS
 62
     0
440
 16777216
100
AcDbPoint
 10
9.562500000000163
 20
16.78109408228761
 30
0.0
  0
POINT
  5
5C3
330
39F
100
AcDbEntity
  8
DEFPOINTS
 62
     0
440
 16777216
100
AcDbPoint
 10
9.562500000000163
 20
28.49148703010852
 30
0.0
  0
ENDBLK
  5
3A1
330
39F
100
AcDbEntity
  8
0
100
AcDbBlockEnd
  0
BLOCK
  5
3AD
330
3AC
100
AcDbEntity
  8
0
100
AcDbBlockBegin
  2
*D20
 70
     1
 10
0.0
 20
0.0
 30
0.0
  3
*D20
  1

  0
LINE
  5
45F
330
3AC
100
AcDbEntity
  8
DIM
 62
     0
440
 16777216
370
    -2
100
AcDbLine
 10
-0.0000000003363425
 20
23.98499737791988
 30
0.0
 11
-15.40048903349265
 21
23.98499737791988
 31
0.0
  0
LINE
  5
460
330
3AC
100
AcDbEntity
  8
DIM
 62
     0
440
 16777216
370
    -2
100
AcDbLine
 10
-0.0624999996634845
 20
7.859997377919867
 30
0.0
 11
-15.40048903349265
 21
7.859997377919872
 31
0.0
  0
LINE
  5
461
330
3AC
100
AcDbEntity
  8
DIM
 62
     0
440
 16777216
370
    -2
100
AcDbLine
 10
-15.22048903349265
 20
23.80499737791989
 30
0.0
 11
-15.22048903349265
 21
16.10249737791988
 31
0.0
  0
LINE
  5
462
330
3AC
100
AcDbEntity
  8
DIM
 62
     0
440
 16777216
370
    -2
100
AcDbLine
 10
-15.22048903349265
 20
8.039997377919872
 30
0.0
 11
-15.22048903349265
 21
15.74249737791988
 31
0.0
  0
SOLID
  5
463
330
3AC
100
AcDbEntity
  8
DIM
 62
     0
440
 16777216
100
AcDbTrace
 10
-15.25048903349265
 20
23.80499737791989
 30
0.0
 11
-15.19048903349265
 21
23.80499737791989
 31
0.0
 12
-15.22048903349265
 22
23.98499737791988
 32
0.0
 13
-15.22048903349265
 23
23.98499737791988
 33
0.0
  0
SOLID
  5
464
330
3AC
100
AcDbEntity
  8
DIM
 62
     0
440
 16777216
100
AcDbTrace
 10
-15.25048903349265
 20
8.039997377919872
 30
0.0
 11
-15.19048903349265
 21
8.039997377919872
 31
0.0
 12
-15.22048903349265
 22
7.859997377919872
 32
0.0
 13
-15.22048903349265
 23
7.859997377919872
 33
0.0
  0
MTEXT
  5
465
330
3AC
100
AcDbEntity
  8
DIM
 62
     0
440
 16777216
100
AcDbMText
 10
-15.22048903349265
 20
15.92249737791988
 30
0.0
 40
0.18
 41
0.0
 46
0.0
 71
     5
 72
     1
  1
\A1;16.1250
 73
     1
 44
1.0
  0
POINT
  5
466
330
3AC
100
AcDbEntity
  8
DEFPOINTS
 62
     0
440
 16777216
100
AcDbPoint
 10
0.0624999996636575
 20
23.98499737791988
 30
0.0
  0
POINT
  5
467
330
3AC
100
AcDbEntity
  8
DEFPOINTS
 62
     0
440
 16777216
100
AcDbPoint
 10
0.0000000003365155
 20
7.859997377919867
 30
0.0
  0
POINT
  5
468
330
3AC
100
AcDbEntity
  8
DEFPOINTS
 62
     0
440
 16777216
100
AcDbPoint
 10
-15.22048903349265
 20
7.859997377919872
 30
0.0
  0
ENDBLK
  5
3AE
330
3AC
100
AcDbEntity
  8
0
100
AcDbBlockEnd
  0
BLOCK
  5
3BA
330
3B9
100
AcDbEntity
  8
0
100
AcDbBlockBegin
  2
*D21
 70
     1
 10
0.0
 20
0.0
 30
0.0
  3
*D21
  1

  0
LINE
  5
5C4
330
3B9
100
AcDbEntity
  8
DIM
 62
     0
440
 16777216
370
    -2
100
AcDbLine
 10
-8.031249999999818
 20
16.84359408887289
 30
0.0
 11
-8.031249999999818
 21
27.59087105939968
 31
0.0
  0
LINE
  5
5C5
330
3B9
100
AcDbEntity
  8
DIM
 62
     0
440
 16777216
370
    -2
100
AcDbLine
 10
8.031250000000177
 20
16.84359408887277
 30
0.0
 11
8.031250000000177
 21
27.59087105939968
 31
0.0
  0
LINE
  5
5C6
330
3B9
100
AcDbEntity
  8
DIM
 62
     0
440
 16777216
370
    -2
100
AcDbLine
 10
-7.851249999999819
 20
27.41087105939968
 30
0.0
 11
-0.5849999999998206
 21
27.41087105939968
 31
0.0
  0
LINE
  5
5C7
330
3B9
100
AcDbEntity
  8
DIM
 62
     0
440
 16777216
370
    -2
100
AcDbLine
 10
7.851250000000177
 20
27.41087105939968
 30
0.0
 11
0.5850000000001794
 21
27.41087105939968
 31
0.0
  0
SOLID
  5
5C8
330
3B9
100
AcDbEntity
  8
DIM
 62
     0
440
 16777216
100
AcDbTrace
 10
-7.851249999999819
 20
27.44087105939968
 30
0.0
 11
-7.851249999999819
 21
27.38087105939968
 31
0.0
 12
-8.031249999999818
 22
27.41087105939968
 32
0.0
 13
-8.031249999999818
 23
27.41087105939968
 33
0.0
  0
SOLID
  5
5C9
330
3B9
100
AcDbEntity
  8
DIM
 62
     0
440
 16777216
100
AcDbTrace
 10
7.851250000000177
 20
27.44087105939968
 30
0.0
 11
7.851250000000177
 21
27.38087105939968
 31
0.0
 12
8.031250000000177
 22
27.41087105939968
 32
0.0
 13
8.031250000000177
 23
27.41087105939968
 33
0.0
  0
MTEXT
  5
5CA
330
3B9
100
AcDbEntity
  8
DIM
 62
     0
440
 16777216
100
AcDbMText
 10
0.0000000000001794
 20
27.41087105939968
 30
0.0
 40
0.18
 41
0.0
 46
0.0
 71
     5
 72
     1
  1
\A1;16.0625
 73
     1
 44
1.0
  0
POINT
  5
5CB
330
3B9
100
AcDbEntity
  8
DEFPOINTS
 62
     0
440
 16777216
100
AcDbPoint
 10
-8.031249999999818
 20
16.78109408887289
 30
0.0
  0
POINT
  5
5CC
330
3B9
100
AcDbEntity
  8
DEFPOINTS
 62
     0
440
 16777216
100
AcDbPoint
 10
8.031250000000177
 20
16.78109408887278
 30
0.0
  0
POINT
  5
5CD
330
3B9
100
AcDbEntity
  8
DEFPOINTS
 62
     0
440
 16777216
100
AcDbPoint
 10
8.031250000000177
 20
27.41087105939968
 30
0.0
  0
ENDBLK
  5
3BB
330
3B9
100
AcDbEntity
  8
0
100
AcDbBlockEnd
  0
BLOCK
  5
3C7
330
3C6
100
AcDbEntity
  8
0
100
AcDbBlockBegin
  2
*D22
 70
     1
 10
0.0
 20
0.0
 30
0.0
  3
*D22
  1

  0
LINE
  5
4C6
330
3C6
100
AcDbEntity
  8
DIM
 62
     0
440
 16777216
370
    -2
100
AcDbLine
 10
-0.0624999999997714
 20
22.45374737791989
 30
0.0
 11
-11.85087959975789
 21
22.45374737791989
 31
0.0
  0
LINE
  5
4C7
330
3C6
100
AcDbEntity
  8
DIM
 62
     0
440
 16777216
370
    -2
100
AcDbLine
 10
-0.0031915593111416
 20
9.391425467682482
 30
0.0
 11
-11.85087959975789
 21
9.391425467682484
 31
0.0
  0
LINE
  5
4C8
330
3C6
100
AcDbEntity
  8
DIM
 62
     0
440
 16777216
370
    -2
100
AcDbLine
 10
-11.67087959975789
 20
22.27374737791989
 30
0.0
 11
-11.67087959975789
 21
16.10258642280119
 31
0.0
  0
LINE
  5
4C9
330
3C6
100
AcDbEntity
  8
DIM
 62
     0
440
 16777216
370
    -2
100
AcDbLine
 10
-11.67087959975789
 20
9.571425467682484
 30
0.0
 11
-11.67087959975789
 21
15.74258642280119
 31
0.0
  0
SOLID
  5
4CA
330
3C6
100
AcDbEntity
  8
DIM
 62
     0
440
 16777216
100
AcDbTrace
 10
-11.70087959975789
 20
22.27374737791989
 30
0.0
 11
-11.64087959975789
 21
22.27374737791989
 31
0.0
 12
-11.67087959975789
 22
22.45374737791989
 32
0.0
 13
-11.67087959975789
 23
22.45374737791989
 33
0.0
  0
SOLID
  5
4CB
330
3C6
100
AcDbEntity
  8
DIM
 62
     0
440
 16777216
100
AcDbTrace
 10
-11.70087959975789
 20
9.571425467682484
 30
0.0
 11
-11.64087959975789
 21
9.571425467682484
 31
0.0
 12
-11.67087959975789
 22
9.391425467682484
 32
0.0
 13
-11.67087959975789
 23
9.391425467682484
 33
0.0
  0
MTEXT
  5
4CC
330
3C6
100
AcDbEntity
  8
DIM
 62
     0
440
 16777216
100
AcDbMText
 10
-11.67087959975789
 20
15.92258642280118
 30
0.0
 40
0.18
 41
0.0
 46
0.0
 71
     5
 72
     1
  1
\A1;13.0625
 73
     1
 44
1.0
  0
POINT
  5
4CD
330
3C6
100
AcDbEntity
  8
DEFPOINTS
 62
     0
440
 16777216
100
AcDbPoint
 10
0.0000000000002286
 20
22.45374737791989
 30
0.0
  0
POINT
  5
4CE
330
3C6
100
AcDbEntity
  8
DEFPOINTS
 62
     0
440
 16777216
100
AcDbPoint
 10
0.0593084406888584
 20
9.391425467682482
 30
0.0
  0
POINT
  5
4CF
330
3C6
100
AcDbEntity
  8
DEFPOINTS
 62
     0
440
 16777216
100
AcDbPoint
 10
-11.67087959975789
 20
9.391425467682484
 30
0.0
  0
ENDBLK
  5
3C8
330
3C6
100
AcDbEntity
  8
0
100
AcDbBlockEnd
  0
BLOCK
  5
3D4
330
3D3
100
AcDbEntity
  8
0
100
AcDbBlockBegin
  2
*D23
 70
     1
 10
0.0
 20
0.0
 30
0.0
  3
*D23
  1

  0
LINE
  5
5F8
330
3D3
100
AcDbEntity
  8
DIM
 62
     0
440
 16777216
370
    -2
100
AcDbLine
 10
-0.0352932166386034
 20
23.98456563448669
 30
0.0
 11
11.43092428142278
 21
23.98456563448669
 31
0.0
  0
LINE
  5
5F9
330
3D3
100
AcDbEntity
  8
DIM
 62
     0
440
 16777216
370
    -2
100
AcDbLine
 10
0.0000000000001776
 20
15.92249737791988
 30
0.0
 11
11.43092428142278
 21
15.92249737791988
 31
0.0
  0
LINE
  5
5FA
330
3D3
100
AcDbEntity
  8
DIM
 62
     0
440
 16777216
370
    -2
100
AcDbLine
 10
11.25092428142278
 20
23.80456563448669
 30
0.0
 11
11.25092428142278
 21
20.13353150620328
 31
0.0
  0
LINE
  5
5FB
330
3D3
100
AcDbEntity
  8
DIM
 62
     0
440
 16777216
370
    -2
100
AcDbLine
 10
11.25092428142278
 20
16.10249737791987
 30
0.0
 11
11.25092428142278
 21
19.77353150620328
 31
0.0
  0
SOLID
  5
5FC
330
3D3
100
AcDbEntity
  8
DIM
 62
     0
440
 16777216
100
AcDbTrace
 10
11.22092428142278
 20
23.80456563448669
 30
0.0
 11
11.28092428142278
 21
23.80456563448669
 31
0.0
 12
11.25092428142278
 22
23.98456563448669
 32
0.0
 13
11.25092428142278
 23
23.98456563448669
 33
0.0
  0
SOLID
  5
5FD
330
3D3
100
AcDbEntity
  8
DIM
 62
     0
440
 16777216
100
AcDbTrace
 10
11.22092428142278
 20
16.10249737791987
 30
0.0
 11
11.28092428142278
 21
16.10249737791987
 31
0.0
 12
11.25092428142278
 22
15.92249737791988
 32
0.0
 13
11.25092428142278
 23
15.92249737791988
 33
0.0
  0
MTEXT
  5
5FE
330
3D3
100
AcDbEntity
  8
DIM
 62
     0
440
 16777216
100
AcDbMText
 10
11.25092428142278
 20
19.95353150620328
 30
0.0
 40
0.18
 41
0.0
 46
0.0
 71
     5
 72
     1
  1
\A1;8.0625
 73
     1
 44
1.0
  0
POINT
  5
5FF
330
3D3
100
AcDbEntity
  8
DEFPOINTS
 62
     0
440
 16777216
100
AcDbPoint
 10
-0.0977932166386034
 20
23.98456563448669
 30
0.0
  0
POINT
  5
600
330
3D3
100
AcDbEntity
  8
DEFPOINTS
 62
     0
440
 16777216
100
AcDbPoint
 10
-0.0624999999998224
 20
15.92249737791988
 30
0.0
  0
POINT
  5
601
330
3D3
100
AcDbEntity
  8
DEFPOINTS
 62
     0
440
 16777216
100
AcDbPoint
 10
11.25092428142278
 20
15.92249737791988
 30
0.0
  0
ENDBLK
  5
3D5
330
3D3
100
AcDbEntity
  8
0
100
AcDbBlockEnd
  0
BLOCK
  5
3E1
330
3E0
100
AcDbEntity
  8
0
100
AcDbBlockBegin
  2
*D24
 70
     1
 10
0.0
 20
0.0
 30
0.0
  3
*D24
  1

  0
LINE
  5
5D8
330
3E0
100
AcDbEntity
  8
DIM
 62
     0
440
 16777216
370
    -2
100
AcDbLine
 10
3.192931651115769
 20
25.98499737791989
 30
0.0
 11
5.337370267256172
 21
25.98499737791989
 31
0.0
  0
LINE
  5
5D9
330
3E0
100
AcDbEntity
  8
DIM
 62
     0
440
 16777216
370
    -2
100
AcDbLine
 10
-0.0352932166386034
 20
23.98499737791988
 30
0.0
 11
5.337370267256172
 21
23.98499737791988
 31
0.0
  0
LINE
  5
5DA
330
3E0
100
AcDbEntity
  8
DIM
 62
     0
440
 16777216
370
    -2
100
AcDbLine
 10
5.157370267256172
 20
25.80499737791989
 30
0.0
 11
5.157370267256172
 21
25.16478150620329
 31
0.0
  0
LINE
  5
5DB
330
3E0
100
AcDbEntity
  8
DIM
 62
     0
440
 16777216
370
    -2
100
AcDbLine
 10
5.157370267256172
 20
24.16499737791988
 30
0.0
 11
5.157370267256172
 21
24.80478150620329
 31
0.0
  0
SOLID
  5
5DC
330
3E0
100
AcDbEntity
  8
DIM
 62
     0
440
 16777216
100
AcDbTrace
 10
5.127370267256172
 20
25.80499737791989
 30
0.0
 11
5.187370267256173
 21
25.80499737791989
 31
0.0
 12
5.157370267256172
 22
25.98499737791989
 32
0.0
 13
5.157370267256172
 23
25.98499737791989
 33
0.0
  0
SOLID
  5
5DD
330
3E0
100
AcDbEntity
  8
DIM
 62
     0
440
 16777216
100
AcDbTrace
 10
5.127370267256172
 20
24.16499737791988
 30
0.0
 11
5.187370267256173
 21
24.16499737791988
 31
0.0
 12
5.157370267256172
 22
23.98499737791988
 32
0.0
 13
5.157370267256172
 23
23.98499737791988
 33
0.0
  0
MTEXT
  5
5DE
330
3E0
100
AcDbEntity
  8
DIM
 62
     0
440
 16777216
100
AcDbMText
 10
5.157370267256169
 20
24.98478150620329
 30
0.0
 40
0.18
 41
0.0
 46
0.0
 71
     5
 72
     1
  1
\A1;2.000 Min.
 73
     1
 44
1.0
  0
POINT
  5
5DF
330
3E0
100
AcDbEntity
  8
DEFPOINTS
 62
     0
440
 16777216
100
AcDbPoint
 10
3.130431651115769
 20
25.98499737791989
 30
0.0
  0
POINT
  5
5E0
330
3E0
100
AcDbEntity
  8
DEFPOINTS
 62
     0
440
 16777216
100
AcDbPoint
 10
-0.0977932166386034
 20
23.98499737791988
 30
0.0
  0
POINT
  5
5E1
330
3E0
100
AcDbEntity
  8
DEFPOINTS
 62
     0
440
 16777216
100
AcDbPoint
 10
5.157370267256172
 20
23.98499737791988
 30
0.0
  0
ENDBLK
  5
3E2
330
3E0
100
AcDbEntity
  8
0
100
AcDbBlockEnd
  0
BLOCK
  5
3EE
330
3ED
100
AcDbEntity
  8
0
100
AcDbBlockBegin
  2
*D25
 70
     1
 10
0.0
 20
0.0
 30
0.0
  3
*D25
  1

  0
LINE
  5
5E2
330
3ED
100
AcDbEntity
  8
DIM
 62
     0
440
 16777216
370
    -2
100
AcDbLine
 10
-8.031249999999815
 20
15.80499737791992
 30
0.0
 11
-8.031249999999815
 21
15.92249737791994
 31
0.0
  0
LINE
  5
5E3
330
3ED
100
AcDbEntity
  8
DIM
 62
     0
440
 16777216
370
    -2
100
AcDbLine
 10
-7.651249999999819
 20
15.80499737791994
 30
0.0
 11
-7.651249999999819
 21
15.92249737791994
 31
0.0
  0
LINE
  5
5E4
330
3ED
100
AcDbEntity
  8
DIM
 62
     0
440
 16777216
370
    -2
100
AcDbLine
 10
-8.211249999999814
 20
15.74249737791994
 30
0.0
 11
-8.391249999999814
 21
15.74249737791994
 31
0.0
  0
LINE
  5
5E5
330
3ED
100
AcDbEntity
  8
DIM
 62
     0
440
 16777216
370
    -2
100
AcDbLine
 10
-7.47124999999982
 20
15.74249737791994
 30
0.0
 11
-7.291249999999819
 21
15.74249737791994
 31
0.0
  0
SOLID
  5
5E6
330
3ED
100
AcDbEntity
  8
DIM
 62
     0
440
 16777216
100
AcDbTrace
 10
-8.211249999999814
 20
15.77249737791994
 30
0.0
 11
-8.211249999999814
 21
15.71249737791994
 31
0.0
 12
-8.031249999999815
 22
15.74249737791994
 32
0.0
 13
-8.031249999999815
 23
15.74249737791994
 33
0.0
  0
SOLID
  5
5E7
330
3ED
100
AcDbEntity
  8
DIM
 62
     0
440
 16777216
100
AcDbTrace
 10
-7.47124999999982
 20
15.77249737791994
 30
0.0
 11
-7.47124999999982
 21
15.71249737791994
 31
0.0
 12
-7.651249999999819
 22
15.74249737791994
 32
0.0
 13
-7.651249999999819
 23
15.74249737791994
 33
0.0
  0
MTEXT
  5
5E8
330
3ED
100
AcDbEntity
  8
DIM
 62
     0
440
 16777216
100
AcDbMText
 10
-6.796249999999819
 20
15.74249737791994
 30
0.0
 40
0.18
 41
0.0
 46
0.0
 71
     5
 72
     1
  1
\A1;0.3800
 73
     1
 44
1.0
  0
POINT
  5
5E9
330
3ED
100
AcDbEntity
  8
DEFPOINTS
 62
     0
440
 16777216
100
AcDbPoint
 10
-8.031249999999815
 20
15.74249737791992
 30
0.0
  0
POINT
  5
5EA
330
3ED
100
AcDbEntity
  8
DEFPOINTS
 62
     0
440
 16777216
100
AcDbPoint
 10
-7.651249999999819
 20
15.74249737791994
 30
0.0
  0
POINT
  5
5EB
330
3ED
100
AcDbEntity
  8
DEFPOINTS
 62
     0
440
 16777216
100
AcDbPoint
 10
-7.651249999999819
 20
15.74249737791994
 30
0.0
  0
ENDBLK
  5
3EF
330
3ED
100
AcDbEntity
  8
0
100
AcDbBlockEnd
  0
ENDSEC
  0
SECTION
  2
ENTITIES
  0
INSERT
  5
22F
330
70
100
AcDbEntity
  8
0
100
AcDbBlockReference
  2
AMSTD_Estate_0484.000_Front View
 10
0.0000000000007221
 20
-0.7508266771258475
 30
0.0
  0
INSERT
  5
289
330
70
100
AcDbEntity
  8
0
100
AcDbBlockReference
  2
AMSTD_Estate_0484.000_Side View
 10
-25.12809787294584
 20
-0.7508266771259815
 30
0.0
  0
INSERT
  5
2A5
330
70
100
AcDbEntity
  8
0
100
AcDbBlockReference
  2
AMSTD_Estate_0484.000_Plan View
 10
0.0000000000001803
 20
15.92249737791988
 30
0.0
  0
SPLINE
  5
31E
330
70
100
AcDbEntity
  8
Cut Outline
100
AcDbSpline
210
0.0
220
0.0
230
1.0
 70
    11
 71
     3
 72
    40
 73
    36
 74
     0
 42
0.000000001
 43
0.0000000001
 40
0.0
 40
0.0
 40
0.0
 40
0.0
 40
0.2583790560030849
 40
0.2583790560030849
 40
0.6559522534957095
 40
0.6559522534957095
 40
1.053525450988334
 40
1.053525450988334
 40
1.451098648480958
 40
1.451098648480958
 40
1.848671845973583
 40
1.848671845973583
 40
2.246245043466208
 40
2.246245043466208
 40
2.643818240958832
 40
2.643818240958832
 40
3.041391438451457
 40
3.041391438451457
 40
3.438964635944081
 40
3.438964635944081
 40
3.836537833436706
 40
3.836537833436706
 40
4.23411103092933
 40
4.23411103092933
 40
4.631684228421955
 40
4.631684228421955
 40
5.029257425914579
 40
5.029257425914579
 40
5.426830623407203
 40
5.426830623407203
 40
5.824403820899828
 40
5.824403820899828
 40
6.221977018392452
 40
6.221977018392452
 40
6.28318530717958
 40
6.28318530717958
 40
6.28318530717958
 40
6.28318530717958
 10
-7.656249999999817
 20
15.92249737791993
 30
0.0
 10
-7.65624999999982
 20
15.39969960396871
 30
0.0
 10
-7.572878332662477
 20
14.87686712044575
 30
0.0
 10
-7.154340425075272
 20
13.58899494163317
 30
0.0
 10
-6.706010154628474
 20
12.84539816238385
 30
0.0
 10
-5.478270776664518
 20
11.54812301926702
 30
0.0
 10
-4.699165807850899
 20
10.99557434465585
 30
0.0
 10
-2.928964449467716
 20
10.17653436320696
 30
0.0
 10
-1.938826782028069
 20
9.910602760680365
 30
0.0
 10
0.0937792135827131
 20
9.711795071700468
 30
0.0
 10
1.135226774333086
 20
9.779023124901083
 30
0.0
 10
3.101447146552237
 20
10.23514352810122
 30
0.0
 10
4.025204082072792
 20
10.62377925396989
 30
0.0
 10
5.608418919868451
 20
11.65528828645026
 30
0.0
 10
6.267054755173959
 20
12.2973466987724
 30
0.0
 10
7.222628641551526
 20
13.72737576148637
 30
0.0
 10
7.519789181046742
 20
14.51429387644749
 30
0.0
 10
7.717808816059124
 20
16.11603208503354
 30
0.0
 10
7.619064193843528
 20
16.93118720979972
 30
0.0
 10
7.036628870860924
 20
18.47675606568627
 30
0.0
 10
6.55224897189528
 20
19.20674940023542
 30
0.0
 10
5.261474405646007
 20
20.4658548557134
 30
0.0
 10
4.45549747641099
 20
20.99386577918979
 30
0.0
 10
2.645922168846412
 20
21.75677863879397
 30
0.0
 10
1.643300173317233
 20
21.9911778015634
 30
0.0
 10
-0.3976112496970527
 20
22.12541743341145
 30
0.0
 10
-1.434879679706738
 20
22.02518821762474
 30
0.0
 10
-3.376823139842068
 20
21.50732580632781
 30
0.0
 10
-4.280485612574438
 20
21.08999154160946
 30
0.0
 10
-5.811321681183113
 20
20.01029457891733
 30
0.0
 10
-6.437728575398797
 20
19.34881159342241
 30
0.0
 10
-7.322767349151322
 20
17.89164823432228
 30
0.0
 10
-7.581748559980505
 20
17.09694262188876
 30
0.0
 10
-7.651588322742744
 20
16.17019207548982
 30
0.0
 10
-7.656249999999816
 20
16.0463447114472
 30
0.0
 10
-7.656249999999817
 20
15.92249737791993
 30
0.0
1001
REVIT
1002
{
1070
     1
1000
19964
1002
}
1002
{
1070
     2
1000
-2001160
1002
}
1002
{
1070
     3
1000
-2009521
1002
}
  0
DIMENSION
  5
392
330
70
100
AcDbEntity
  8
DIM
100
AcDbDimension
  2
*D19
 10
9.562500000000163
 20
28.49148703010852
 30
0.0
 11
0.0000000000001812
 21
28.49148703010852
 31
0.0
 70
    32
 71
     5
 42
19.12499999999996
 73
     0
 74
     0
 75
     0
  3
Standard
100
AcDbAlignedDimension
 13
-9.562499999999801
 23
16.78109409545801
 33
0.0
 14
9.562500000000163
 24
16.78109408228761
 34
0.0
100
AcDbRotatedDimension
  0
DIMENSION
  5
393
330
70
100
AcDbEntity
  8
DIM
100
AcDbDimension
  2
*D20
 10
-15.22048903349265
 20
7.859997377919872
 30
0.0
 11
-15.22048903349265
 21
15.92249737791988
 31
0.0
 70
    32
 71
     5
 42
16.12500000000001
 73
     0
 74
     0
 75
     0
  3
Standard
100
AcDbAlignedDimension
 13
0.0624999996636575
 23
23.98499737791988
 33
0.0
 14
0.0000000003365155
 24
7.859997377919867
 34
0.0
 50
90.0
100
AcDbRotatedDimension
  0
DIMENSION
  5
394
330
70
100
AcDbEntity
  8
DIM
100
AcDbDimension
  2
*D21
 10
8.031250000000177
 20
27.41087105939968
 30
0.0
 11
0.0000000000001794
 21
27.41087105939968
 31
0.0
 70
    32
 71
     5
 42
16.0625
 73
     0
 74
     0
 75
     0
  3
Standard
100
AcDbAlignedDimension
 13
-8.031249999999818
 23
16.78109408887289
 33
0.0
 14
8.031250000000177
 24
16.78109408887278
 34
0.0
100
AcDbRotatedDimension
  0
DIMENSION
  5
395
330
70
100
AcDbEntity
  8
DIM
100
AcDbDimension
  2
*D22
 10
-11.67087959975789
 20
9.391425467682484
 30
0.0
 11
-11.67087959975789
 21
15.92258642280118
 31
0.0
 70
    32
  1
13.0625
 71
     5
 42
13.0623219102374
 73
     0
 74
     0
 75
     0
  3
Standard
100
AcDbAlignedDimension
 13
0.0000000000002286
 23
22.45374737791989
 33
0.0
 14
0.0593084406888584
 24
9.391425467682482
 34
0.0
 50
90.0
100
AcDbRotatedDimension
  0
DIMENSION
  5
396
330
70
100
AcDbEntity
  8
DIM
100
AcDbDimension
  2
*D23
 10
11.25092428142278
 20
15.92249737791988
 30
0.0
 11
11.25092428142278
 21
19.95353150620328
 31
0.0
 70
    32
  1
8.0625
 71
     5
 42
8.062068256566814
 73
     0
 74
     0
 75
     0
  3
Standard
100
AcDbAlignedDimension
 13
-0.0977932166386034
 23
23.98456563448669
 33
0.0
 14
-0.0624999999998224
 24
15.92249737791988
 34
0.0
 50
90.0
100
AcDbRotatedDimension
  0
DIMENSION
  5
397
330
70
100
AcDbEntity
  8
DIM
100
AcDbDimension
  2
*D24
 10
5.157370267256172
 20
23.98499737791988
 30
0.0
 11
5.157370267256169
 21
24.98478150620329
 31
0.0
 70
   160
  1
2.000 Min.
 71
     5
 42
2.000000000000007
 73
     0
 74
     0
 75
     0
  3
Standard
100
AcDbAlignedDimension
 13
3.130431651115769
 23
25.98499737791989
 33
0.0
 14
-0.0977932166386034
 24
23.98499737791988
 34
0.0
 50
90.0
100
AcDbRotatedDimension
  0
MULTILEADER
  5
398
330
70
100
AcDbEntity
  8
text
 92
      940
310
AC030000180000000C00000016000000000000C00C00000033000000000000000C00000013000000993A0000E000000026000000002FB35573622F4020251A1F7ED13940000000000000000000000000000000000000000000000000000000000000F03F000000000000F03F00000000000000000000000000000000430065
310
006E007400650072006C0069006E00650020006F0066002000660061007500630065007400000000C31400000001000000000000000000E03F000000000000F03F0000000000000000000000000000F03F00000000000000000000000000000000000000000000000000000000010000000000000000000000740078007400
310
2E007300680078000000000000001401000026000000002FB35573622F40CBCFC4C928FC3840000000000000000000000000000000000000000000000000000000000000F03F000000000000F03F000000000000000000000000000000004E004F00540045003A0020004200650066006F0072006500200063007500740074
310
0069006E006700200063006F006E006600690072006D00200069006E007300740061006C006C006100740069006F006E00200074007900700065002E0000002F00000001000000000000000000E03F000000000000F03F0000000000000000000000000000F03F000000000000000000000000000000000000000000000000
310
000000000100000000000000000000007400780074002E007300680078000000000000000C00000033000000000000000C00000010000000050000000C00000016000000000000C00C00000012000000FF7F00000C00000013000000010000000C0000001400000001000000540000000700000003000000803EDFBF1F0B0D
310
40757A6F74D3E639400000000000000000803EDFBF1F0B0940CACFC4C928FC39400000000000000000803EDFBF1F0B0D401F251A1F7E113A4000000000000000000C00000013000000891300003C0000000600000002000000803EDFBF1F0B0D40CACFC4C928FC3940000000000000000000580FE535282140CACFC4C928FC
310
394000000000000000000C00000013000000112700003C000000060000000200000000580FE535282140CACFC4C928FC39400000000000000000A89FF05F4A062F40CACFC4C928FC394000000000000000000C00000016000000000000C00C00000012000000FF7F00000C00000017000000000000000C000000130000009A
310
3A00000C00000016000000000000C00C00000012000000FF7F00000C00000017000000FFFFFFFF0C0000003300000000000000
100
AcDbMLeader
300
CONTEXT_DATA{
 40
2.0
 10
15.51228618442822
 20
25.98499737791989
 30
0.0
 41
0.5
140
0.5
145
0.18
174
     1
175
     1
176
     0
177
     0
290
     1
304
Centerline of faucet\PNOTE: Before cutting confirm installation type.
 11
0.0
 21
0.0
 31
1.0
340
55
 12
15.69228618442821
 22
26.31833071125323
 32
0.0
 13
1.0
 23
0.0
 33
0.0
 42
0.0
 43
0.0
 44
0.0
 45
1.0
170
     1
 90
-1073741824
171
     1
172
     5
 91
-1073741824
141
0.0
 92
        0
291
     0
292
     0
173
     0
293
     0
142
0.0
143
0.0
294
     0
295
     0
296
     0
110
4.885431651115766
120
27.01739485074063
130
0.0
111
1.0
121
0.0
131
0.0
112
0.0
122
1.0
132
0.0
297
     0
302
LEADER{
290
     1
291
     1
 10
8.57853618442823
 20
25.98499737791989
 30
0.0
 11
1.0
 21
0.0
 31
0.0
 90
        0
 40
6.93374999999999
304
LEADER_LINE{
 10
3.13043165111577
 20
25.98499737791989
 30
0.0
 91
        0
305
}
303
}
301
}
340
67
 90
   279680
170
     1
 91
-1056964608
341
5B
171
    -2
290
     1
291
     1
 41
0.36
 42
0.25
172
     2
343
55
173
     1
 95
        1
174
     1
175
     0
 92
-1056964608
292
     0
 93
-1056964608
 10
1.0
 20
1.0
 30
1.0
 43
0.0
176
     0
293
     0
294
     0
178
     0
179
     1
 45
2.0
1001
ACAD_MLEADERVER
1070
     2
  0
MULTILEADER
  5
399
330
70
100
AcDbEntity
  8
text
 92
      676
310
A4020000170000000C00000016000000000000C00C00000033000000000000000C00000013000000993A0000EC00000026000000162C58C67D682C4077301BE940443140000000000000000000000000000000000000000000000000000000000000F03F000000000000F03F000000000000000000000000000000004F0075
310
00740065007200200063006F006E0074006F007500720020006F006600200062006100730069006E002000720069006D00000000001A00000001000000000000000000E03F000000000000F03F0000000000000000000000000000F03F00000000000000000000000000000000000000000000000000000000010000000000
310
0000000000007400780074002E007300680078000000000000000C00000033000000000000000C00000010000000050000000C00000016000000000000C00C00000012000000FF7F00000C00000013000000010000000C0000001400000001000000540000000700000003000000C08FF2799B0824400C4FE17A50172F4000
310
0000000000000078322C8E7C1423408E45230F37BF2E4000000000000000008D8EE1BFD6DE23404643CBFFB9612F4000000000000000000C00000013000000891300003C0000000600000002000000260FEA1CB9F323402949563D853C2F40000000000000000018C51A275BB72A4077301BE9408431400000000000000000
310
0C00000013000000112700003C000000060000000200000018C51A275BB72A4077301BE9408431400000000000000000BA9C95D0540C2C4077301BE94084314000000000000000000C00000016000000000000C00C00000012000000FF7F00000C00000017000000000000000C000000130000009A3A00000C000000160000
310
00000000C00C00000012000000FF7F00000C00000017000000FFFFFFFF0C0000003300000000000000
100
AcDbMLeader
300
CONTEXT_DATA{
 40
2.0
 10
14.02408458544083
 20
17.51661545671274
 30
0.0
 41
0.5
140
0.5
145
0.18
174
     1
175
     1
176
     0
177
     0
290
     1
304
Outer contour of basin rim
 11
0.0
 21
0.0
 31
1.0
340
55
 12
14.20408458544083
 22
17.76661545671274
 32
0.0
 13
1.0
 23
0.0
 33
0.0
 42
0.0
 43
0.0
 44
0.0
 45
1.0
170
     1
 90
-1073741824
171
     1
172
     5
 91
-1073741824
141
0.0
 92
        0
291
     0
292
     0
173
     0
293
     0
142
0.0
143
0.0
294
     0
295
     0
296
     0
110
9.665012781996878
120
15.37346694284022
130
0.0
111
1.0
121
0.0
131
0.0
112
0.0
122
1.0
132
0.0
297
     0
302
LEADER{
290
     1
291
     1
 10
13.35811731530934
 20
17.51661545671274
 30
0.0
 11
1.0
 21
0.0
 31
0.0
 90
        0
 40
0.6659672701314918
304
LEADER_LINE{
 10
9.540012781996878
 20
15.37346694284022
 30
0.0
 91
        0
305
}
303
}
301
}
340
67
 90
   279680
170
     1
 91
-1056964608
341
5B
171
    -2
290
     1
291
     1
 41
0.36
 42
0.25
172
     2
343
55
173
     1
 95
        1
174
     1
175
     0
 92
-1056964608
292
     0
 93
-1056964608
 10
1.0
 20
1.0
 30
1.0
 43
0.0
176
     0
293
     0
294
     0
178
     0
179
     1
 45
2.0
1001
ACAD_MLEADERVER
1070
     2
  0
MULTILEADER
  5
39A
330
70
100
AcDbEntity
  8
text
 92
      676
310
A4020000170000000C00000016000000000000C00C00000033000000000000000C00000013000000993A0000EC00000026000000162C58C67D682C40BAFB4882DE512F40000000000000000000000000000000000000000000000000000000000000F03F000000000000F03F0000000000000000000000000000000049006E
310
006E0065007200200063006F006E0074006F007500720020006F006600200062006100730069006E002000720069006D00000000001A00000001000000000000000000E03F000000000000F03F0000000000000000000000000000F03F00000000000000000000000000000000000000000000000000000000010000000000
310
0000000000007400780074002E007300680078000000000000000C00000033000000000000000C00000010000000050000000C00000016000000000000C00C00000012000000FF7F00000C00000013000000010000000C0000001400000001000000540000000700000003000000B4187EDD9DBF1E402C049B9764622A4000
310
0000000000000070DFF7449CD11C40AD4D0B54BB122A400000000000000000C61BF0D23D711E40F98D253032AE2A4000000000000000000C00000013000000891300003C00000006000000020000003D1A37D86D981E401249E0634B882A40000000000000000048F1A0DB85862940B9FB4882DED12F400000000000000000
310
0C00000013000000112700003C000000060000000200000048F1A0DB85862940B9FB4882DED12F400000000000000000BA9C95D0540C2C40B9FB4882DED12F4000000000000000000C00000016000000000000C00C00000012000000FF7F00000C00000017000000000000000C000000130000009A3A00000C000000160000
310
00000000C00C00000012000000FF7F00000C00000017000000FFFFFFFF0C0000003300000000000000
100
AcDbMLeader
300
CONTEXT_DATA{
 40
2.0
 10
14.02408458544083
 20
15.90990073338422
 30
0.0
 41
0.5
140
0.5
145
0.18
174
     1
175
     1
176
     0
177
     0
290
     1
304
Inner contour of basin rim
 11
0.0
 21
0.0
 31
1.0
340
55
 12
14.20408458544083
 22
16.15990073338422
 32
0.0
 13
1.0
 23
0.0
 33
0.0
 42
0.0
 43
0.0
 44
0.0
 45
1.0
170
     1
 90
-1073741824
171
     1
172
     5
 91
-1073741824
141
0.0
 92
        0
291
     0
292
     0
173
     0
293
     0
142
0.0
143
0.0
294
     0
295
     0
296
     0
110
9.069635471604968
120
13.7667522195117
130
0.0
111
1.0
121
0.0
131
0.0
112
0.0
122
1.0
132
0.0
297
     0
302
LEADER{
290
     1
291
     1
 10
12.76274000491743
 20
15.90990073338422
 30
0.0
 11
1.0
 21
0.0
 31
0.0
 90
        0
 40
1.261344580523402
304
LEADER_LINE{
 10
7.204697682980494
 20
13.03658545148831
 30
0.0
 91
        0
305
}
303
}
301
}
340
67
 90
   279680
170
     1
 91
-1056964608
341
5B
171
    -2
290
     1
291
     1
 41
0.36
 42
0.25
172
     2
343
55
173
     1
 95
        1
174
     1
175
     0
 92
-1056964608
292
     0
 93
-1056964608
 10
1.0
 20
1.0
 30
1.0
 43
0.0
176
     0
293
     0
294
     0
178
     0
179
     1
 45
2.0
1001
ACAD_MLEADERVER
1070
     2
  0
MTEXT
  5
39B
330
70
100
AcDbEntity
  8
text
100
AcDbMText
 10
-15.01077056558616
 20
5.175834602037465
 30
0.0
 40
0.3
 41
34.66864808511895
 46
0.0
 71
     1
 72
     5
  1
NOTE: AMERICAN STANDARD TAKES NO RESPONSIBILITY IN CUSTOMER SATISFACTION WITH USE OF THIS FULL SIZE LAVATORY TEMPLATE DUE TO VARIATIONS IN WARE. PLEASE CONFIRM SIZE OF BASIN PRIOR TO CUTTING COUNTERTOP SURFACE.
 73
     1
 44
1.0
1001
ACAD
1000
ACAD_MTEXT_COLUMN_INFO_BEGIN
1070
    75
1070
     2
1070
    79
1070
     0
1070
    76
1070
     1
1070
    78
1070
     0
1070
    48
1040
34.66864808511895
1070
    49
1040
1.5
1070
    50
1070
     1
1040
0.0
1000
ACAD_MTEXT_COLUMN_INFO_END
  0
LWPOLYLINE
  5
39C
330
70
100
AcDbEntity
  8
text
100
AcDbPolyline
 90
        4
 70
     1
 43
0.0
 10
-15.40909128467378
 20
5.67663998015524
 10
19.49266192615509
 20
5.67663998015524
 10
19.49266192615509
 20
4.025833201114803
 10
-15.40909128467378
 20
4.025833201114803
  0
MULTILEADER
  5
39D
330
70
100
AcDbEntity
  8
text
 92
      680
310
A8020000170000000C00000016000000000000C00C00000033000000000000000C00000013000000993A0000F000000026000000162C58C67D682C404E71EF1BBBEA3240000000000000000000000000000000000000000000000000000000000000F03F000000000000F03F00000000000000000000000000000000530075
310
006700670065007300740065006400200063006F0075006E0074006500720074006F00700020006300750074002D006F0075007400000000001C00000001000000000000000000E03F000000000000F03F0000000000000000000000000000F03F000000000000000000000000000000000000000000000000000000000100
310
000000000000000000007400780074002E007300680078000000000000000C00000033000000000000000C00000010000000050000000C00000016000000000000C00C00000012000000FF7F00000C00000013000000010000000C0000001400000001000000540000000700000003000000D00212EF21442040D39923E80C
310
1830400000000000000000A4A09047CE9F1E40B7213FC74DD82F400000000000000000225B65CC741A2040EE7E2147483D304000000000000000000C00000013000000891300003C0000000600000002000000F9AEBB5D4B2F2040608CA297AA2A30400000000000000000495F8BF9B09B2A40F91B9AC66515334000000000
310
000000000C00000013000000112700003C0000000600000002000000495F8BF9B09B2A40F91B9AC6651533400000000000000000BA9C95D0540C2C40F91B9AC66515334000000000000000000C00000016000000000000C00C00000012000000FF7F00000C00000017000000000000000C000000130000009A3A00000C0000
310
0016000000000000C00C00000012000000FF7F00000C00000017000000FFFFFFFF0C0000003300000000000000
100
AcDbMLeader
300
CONTEXT_DATA{
 40
2.0
 10
14.02408458544083
 20
19.08358422529634
 30
0.0
 41
0.5
140
0.5
145
0.18
174
     1
175
     1
176
     0
177
     0
290
     1
304
Suggested countertop cut-out
 11
0.0
 21
0.0
 31
1.0
340
55
 12
14.20408458544083
 22
19.41691755862967
 32
0.0
 13
1.0
 23
0.0
 33
0.0
 42
0.0
 43
0.0
 44
0.0
 45
1.0
170
     1
 90
-1073741824
171
     1
172
     5
 91
-1073741824
141
0.0
 92
        0
291
     0
292
     0
173
     0
293
     0
142
0.0
143
0.0
294
     0
295
     0
296
     0
110
9.61098005212837
120
16.94043571142382
130
0.0
111
1.0
121
0.0
131
0.0
112
0.0
122
1.0
132
0.0
297
     0
302
LEADER{
290
     1
291
     1
 10
13.30408458544083
 20
19.08358422529634
 30
0.0
 11
1.0
 21
0.0
 31
0.0
 90
        0
 40
0.72
304
LEADER_LINE{
 10
7.656060331537592
 20
15.92246840139056
 30
0.0
 91
        0
305
}
303
}
301
}
340
67
 90
   279552
170
     1
 91
-1056964608
341
5B
171
    -2
290
     1
291
     1
 41
0.36
 42
0.25
172
     2
343
55
173
     1
 95
        1
174
     1
175
     0
 92
-1056964608
292
     0
 93
-1056964608
 10
1.0
 20
1.0
 30
1.0
 43
0.0
176
     0
293
     0
294
     0
178
     0
179
     1
 45
2.0
1001
ACAD_MLEADERVER
1070
     2
  0
DIMENSION
  5
39E
330
70
100
AcDbEntity
  8
DIM
100
AcDbDimension
  2
*D25
 10
-7.651249999999819
 20
15.74249737791994
 30
0.0
 11
-6.796249999999819
 21
15.74249737791994
 31
0.0
 70
    32
 71
     5
 42
0.3799999999999954
 73
     0
 74
     0
 75
     0
  3
Standard
100
AcDbAlignedDimension
 13
-8.031249999999815
 23
15.74249737791992
 33
0.0
 14
-7.651249999999819
 24
15.74249737791994
 34
0.0
 50
180.0
100
AcDbRotatedDimension
  0
CIRCLE
  5
545
330
70
100
AcDbEntity
  8
Cut Outline
100
AcDbCircle
 10
-0.0000003113855778
 20
25.98499737791989
 30
0.0
 40
0.625
  0
CIRCLE
  5
546
330
70
100
AcDbEntity
  8
Cut Outline
100
AcDbCircle
 10
1.999999688614422
 20
25.98499737791989
 30
0.0
 40
0.625
  0
CIRCLE
  5
547
330
70
100
AcDbEntity
  8
Cut Outline
100
AcDbCircle
 10
-2.000000311385577
 20
25.98499737791989
 30
0.0
 40
0.625
  0
LINE
  5
548
330
70
100
AcDbEntity
  8
Cut Outline
  6
PHANTOM2
100
AcDbLine
 10
-2.781250311385577
 20
25.98499737791989
 30
0.0
 11
-1.218750311385577
 21
25.98499737791989
 31
0.0
  0
LINE
  5
549
330
70
100
AcDbEntity
  8
Cut Outline
100
AcDbLine
 10
-2.000000311385577
 20
26.76624737791989
 30
0.0
 11
-2.000000311385577
 21
25.20374737791989
 31
0.0
  0
LINE
  5
54A
330
70
100
AcDbEntity
  8
Cut Outline
100
AcDbLine
 10
-0.0000003113855778
 20
26.76624737791989
 30
0.0
 11
-0.0000003113855778
 21
25.20374737791989
 31
0.0
  0
LINE
  5
54B
330
70
100
AcDbEntity
  8
Cut Outline
100
AcDbLine
 10
1.999999688614422
 20
26.76624737791989
 30
0.0
 11
1.999999688614422
 21
25.20374737791989
 31
0.0
  0
LINE
  5
54C
330
70
100
AcDbEntity
  8
Cut Outline
  6
PHANTOM2
100
AcDbLine
 10
-0.7812503113855778
 20
25.98499737791989
 30
0.0
 11
0.7812496886144223
 21
25.98499737791989
 31
0.0
  0
LINE
  5
54D
330
70
100
AcDbEntity
  8
Cut Outline
  6
PHANTOM2
100
AcDbLine
 10
1.218749688614422
 20
25.98499737791989
 30
0.0
 11
2.781249688614422
 21
25.98499737791989
 31
0.0
  0
ENDSEC
  0
SECTION
  2
OBJECTS
  0
DICTIONARY
  5
C
330
0
100
AcDbDictionary
281
     1
  3
ACAD_BACKGROUND
350
1DF
  3
ACAD_CIP_PREVIOUS_PRODUCT_INFO
350
79
  3
ACAD_COLOR
350
63
  3
ACAD_DETAILVIEWSTYLE
350
6A
  3
ACAD_GROUP
350
D
  3
ACAD_IMAGE_VARS
350
7A
  3
ACAD_LAYOUT
350
62
  3
ACAD_MATERIAL
350
10
  3
ACAD_MLEADERSTYLE
350
66
  3
ACAD_MLINESTYLE
350
5F
  3
ACAD_PLOTSETTINGS
350
61
  3
ACAD_PLOTSTYLENAME
350
E
  3
ACAD_SCALELIST
350
42
  3
ACAD_SECTIONVIEWSTYLE
350
68
  3
ACAD_TABLESTYLE
350
64
  3
ACAD_VISUALSTYLE
350
29
  3
ACDB_RECOMPOSE_DATA
350
692
  3
AcDbVariableDictionary
350
118
  3
AcDsDecomposeData
350
698
  3
REVIT_DICTIONARY
350
10E
  0
DICTIONARY
  5
2E9
330
2
100
AcDbDictionary
280
     1
281
     1
  3
ACAD_LAYERSTATES
360
2EA
  0
DICTIONARY
  5
2E4
330
2E3
100
AcDbDictionary
280
     1
281
     1
  0
DICTIONARY
  5
37B
330
37A
100
AcDbDictionary
280
     1
281
     1
  0
DICTIONARY
  5
37E
330
37D
100
AcDbDictionary
280
     1
281
     1
  0
DICTIONARY
  5
111
330
70
100
AcDbDictionary
280
     1
281
     1
  3
ACAD_SORTENTS
360
112
  0
DICTIONARY
  5
30F
330
28A
100
AcDbDictionary
280
     1
281
     1
  0
DICTIONARY
  5
1DF
102
{ACAD_REACTORS
330
C
102
}
330
C
100
AcDbDictionary
281
     1
  0
XRECORD
  5
79
102
{ACAD_REACTORS
330
C
102
}
330
C
100
AcDbXrecord
280
     1
300
ACD
300
2014
300
86063ACD_2014_0F
  0
DICTIONARY
  5
63
102
{ACAD_REACTORS
330
C
102
}
330
C
100
AcDbDictionary
281
     1
  0
DICTIONARY
  5
6A
102
{ACAD_REACTORS
330
C
102
}
330
C
100
AcDbDictionary
281
     1
  3
Imperial24
350
6B
  0
DICTIONARY
  5
D
102
{ACAD_REACTORS
330
C
102
}
330
C
100
AcDbDictionary
281
     1
  0
RASTERVARIABLES
  5
7A
102
{ACAD_REACTORS
330
C
102
}
330
C
100
AcDbRasterVariables
 90
        0
 70
     0
 71
     1
 72
     5
  0
DICTIONARY
  5
62
102
{ACAD_REACTORS
330
C
102
}
330
C
100
AcDbDictionary
281
     1
  3
Layout1
350
6F
  3
Layout2
350
77
  3
Model
350
73
  0
DICTIONARY
  5
10
102
{ACAD_REACTORS
330
C
102
}
330
C
100
AcDbDictionary
281
     1
  3
ByBlock
350
19
  3
ByLayer
350
11
  3
Global
350
21
  0
DICTIONARY
  5
66
102
{ACAD_REACTORS
330
C
102
}
330
C
100
AcDbDictionary
281
     1
  3
Standard
350
67
  0
DICTIONARY
  5
5F
102
{ACAD_REACTORS
330
C
102
}
330
C
100
AcDbDictionary
281
     1
  3
Standard
350
60
  0
DICTIONARY
  5
61
102
{ACAD_REACTORS
330
C
102
}
330
C
100
AcDbDictionary
281
     1
  0
ACDBDICTIONARYWDFLT
  5
E
102
{ACAD_REACTORS
330
C
102
}
330
C
100
AcDbDictionary
281
     1
  3
Normal
350
F
100
AcDbDictionaryWithDefault
340
F
  0
DICTIONARY
  5
42
102
{ACAD_REACTORS
330
C
102
}
330
C
100
AcDbDictionary
281
     1
  3
A0
350
43
  3
A1
350
44
  3
A2
350
45
  3
A3
350
46
  3
A4
350
47
  3
A5
350
48
  3
A6
350
49
  3
A7
350
4A
  3
A8
350
4B
  3
A9
350
4C
  3
B0
350
4D
  3
B1
350
4E
  3
B2
350
4F
  3
B3
350
50
  3
B4
350
51
  3
B5
350
52
  3
B6
350
53
  0
DICTIONARY
  5
68
102
{ACAD_REACTORS
330
C
102
}
330
C
100
AcDbDictionary
281
     1
  3
Imperial24
350
69
  0
DICTIONARY
  5
64
102
{ACAD_REACTORS
330
C
102
}
330
C
100
AcDbDictionary
281
     1
  3
Standard
350
65
  0
DICTIONARY
  5
29
102
{ACAD_REACTORS
330
C
102
}
330
C
100
AcDbDictionary
281
     1
  3
2dWireframe
350
2F
  3
3dWireframe
350
2E8
  3
Basic
350
2E
  3
Brighten
350
35
  3
ColorChange
350
39
  3
Conceptual
350
32
  3
Dim
350
34
  3
EdgeColorOff
350
41
  3
Facepattern
350
38
  3
Flat
350
2A
  3
FlatWithEdges
350
2B
  3
Gouraud
350
2C
  3
GouraudWithEdges
350
2D
  3
Hidden
350
31
  3
JitterOff
350
3F
  3
Linepattern
350
37
  3
OverhangOff
350
40
  3
Realistic
350
33
  3
Shaded
350
3E
  3
Shaded with edges
350
3D
  3
Shades of Gray
350
3A
  3
Sketchy
350
3B
  3
Thicken
350
36
  3
Wireframe
350
30
  3
X-Ray
350
3C
  0
XRECORD
  5
692
102
{ACAD_REACTORS
330
C
102
}
330
C
100
AcDbXrecord
280
     1
 90
        1
330
65
330
39B
  0
DICTIONARY
  5
118
102
{ACAD_REACTORS
330
C
102
}
330
C
100
AcDbDictionary
281
     1
  3
CANNOSCALE
350
11D
  3
CMLEADERSTYLE
350
11A
  3
CTABLESTYLE
350
119
  3
CVIEWDETAILSTYLE
350
11B
  3
CVIEWSECTIONSTYLE
350
11C
  3
XCLIPFRAME
350
2A9
  0
DICTIONARY
  5
698
102
{ACAD_REACTORS
330
C
102
}
330
C
100
AcDbDictionary
281
     1
  3
AcDsRecords
350
69A
  3
AcDsSchemas
350
699
1001
ACAD
1070
     2
  0
DICTIONARY
  5
10E
102
{ACAD_REACTORS
330
C
102
}
330
C
100
AcDbDictionary
281
     1
  3
DRAWING_TOOL
350
110
  3
REVIT_CATEGORY_MAPPING
350
10F
  0
DICTIONARY
  5
2EA
102
{ACAD_REACTORS
330
2E9
102
}
330
2E9
100
AcDbDictionary
281
     1
  0
SORTENTSTABLE
  5
112
102
{ACAD_REACTORS
330
111
102
}
330
111
100
AcDbSortentsTable
330
70
331
31E
  5
31E
331
22F
  5
22F
331
2A5
  5
2A5
331
289
  5
289
  0
ACDBDETAILVIEWSTYLE
  5
6B
102
{ACAD_XDICTIONARY
360
115
102
}
102
{ACAD_REACTORS
330
6A
102
}
330
6A
100
AcDbModelDocViewStyle
 70
     0
  3
Imperial24
290
     0
100
AcDbDetailViewStyle
 70
     0
 71
     0
 90
        3
 71
     1
340
55
 62
   256
 40
0.24
340
0
 62
   256
 40
0.24
300

 40
0.36
280
     3
 71
     2
340
5D
 90
       25
 62
   256
 71
     3
340
55
 62
   256
 40
0.24
 90
        1
 40
0.75
 90
        1
300
%<\AcVar ViewType \f "%tc1">% %<\AcVar ViewDetailId>%\PSCALE %<\AcVar ViewScale \f "%sn">%
 71
     4
340
5D
 90
       25
 62
   256
340
5D
 90
       25
 62
   256
280
     0
  0
LAYOUT
  5
6F
102
{ACAD_REACTORS
330
62
102
}
330
62
100
AcDbPlotSettings
  1

  2

  4

  6

 40
0.0
 41
0.0
 42
0.0
 43
0.0
 44
0.0
 45
0.0
 46
0.0
 47
0.0
 48
0.0
 49
0.0
140
0.0
141
0.0
142
1.0
143
1.0
 70
   688
 72
     0
 73
     0
 74
     5
  7

 75
    16
147
1.0
 76
     0
 77
     2
 78
   300
148
0.0
149
0.0
100
AcDbLayout
  1
Layout1
 70
     1
 71
     1
 10
0.0
 20
0.0
 11
12.0
 21
9.0
 12
0.0
 22
0.0
 32
0.0
 14
1.000000000000000E+20
 24
1.000000000000000E+20
 34
1.000000000000000E+20
 15
-1.000000000000000E+20
 25
-1.000000000000000E+20
 35
-1.000000000000000E+20
146
0.0
 13
0.0
 23
0.0
 33
0.0
 16
1.0
 26
0.0
 36
0.0
 17
0.0
 27
1.0
 37
0.0
 76
     0
330
6C
  0
LAYOUT
  5
77
102
{ACAD_REACTORS
330
62
102
}
330
62
100
AcDbPlotSettings
  1

  2

  4

  6

 40
0.0
 41
0.0
 42
0.0
 43
0.0
 44
0.0
 45
0.0
 46
0.0
 47
0.0
 48
0.0
 49
0.0
140
0.0
141
0.0
142
1.0
143
1.0
 70
   688
 72
     0
 73
     0
 74
     5
  7

 75
    16
147
1.0
 76
     0
 77
     2
 78
   300
148
0.0
149
0.0
100
AcDbLayout
  1
Layout2
 70
     1
 71
     2
 10
0.0
 20
0.0
 11
12.0
 21
9.0
 12
0.0
 22
0.0
 32
0.0
 14
0.0
 24
0.0
 34
0.0
 15
0.0
 25
0.0
 35
0.0
146
0.0
 13
0.0
 23
0.0
 33
0.0
 16
1.0
 26
0.0
 36
0.0
 17
0.0
 27
1.0
 37
0.0
 76
     0
330
74
  0
LAYOUT
  5
73
102
{ACAD_REACTORS
330
62
102
}
330
62
100
AcDbPlotSettings
  1

  2

  4

  6

 40
0.0
 41
0.0
 42
0.0
 43
0.0
 44
0.0
 45
0.0
 46
0.0
 47
0.0
 48
0.0
 49
0.0
140
0.0
141
0.0
142
1.0
143
1.0
 70
  1712
 72
     0
 73
     0
 74
     0
  7

 75
     0
147
1.0
 76
     0
 77
     2
 78
   300
148
0.0
149
0.0
100
AcDbLayout
  1
Model
 70
     1
 71
     0
 10
0.0
 20
0.0
 11
12.0
 21
9.0
 12
0.0
 22
0.0
 32
0.0
 14
0.0
 24
0.0
 34
0.0
 15
0.0
 25
0.0
 35
0.0
146
0.0
 13
0.0
 23
0.0
 33
0.0
 16
1.0
 26
0.0
 36
0.0
 17
0.0
 27
1.0
 37
0.0
 76
     0
330
70
331
57
  0
MATERIAL
  5
19
102
{ACAD_XDICTIONARY
360
1A
102
}
102
{ACAD_REACTORS
330
10
102
}
330
10
100
AcDbMaterial
  1
ByBlock
 72
     0
 43
0.0208333333333333
 43
0.0
 43
0.0
 43
0.0
 43
0.0
 43
0.0208333333333333
 43
0.0
 43
0.0
 43
0.0
 43
0.0
 43
1.0
 43
0.0
 43
0.0
 43
0.0
 43
0.0
 43
1.0
 77
     0
 47
0.0208333333333333
 47
0.0
 47
0.0
 47
0.0
 47
0.0
 47
0.0208333333333333
 47
0.0
 47
0.0
 47
0.0
 47
0.0
 47
1.0
 47
0.0
 47
0.0
 47
0.0
 47
0.0
 47
1.0
171
     0
 49
0.0208333333333333
 49
0.0
 49
0.0
 49
0.0
 49
0.0
 49
0.0208333333333333
 49
0.0
 49
0.0
 49
0.0
 49
0.0
 49
1.0
 49
0.0
 49
0.0
 49
0.0
 49
0.0
 49
1.0
175
     0
142
0.0208333333333333
142
0.0
142
0.0
142
0.0
142
0.0
142
0.0208333333333333
142
0.0
142
0.0
142
0.0
142
0.0
142
1.0
142
0.0
142
0.0
142
0.0
142
0.0
142
1.0
179
     0
144
0.0208333333333333
144
0.0
144
0.0
144
0.0
144
0.0
144
0.0208333333333333
144
0.0
144
0.0
144
0.0
144
0.0
144
1.0
144
0.0
144
0.0
144
0.0
144
0.0
144
1.0
147
0.0208333333333333
147
0.0
147
0.0
147
0.0
147
0.0
147
0.0208333333333333
147
0.0
147
0.0
147
0.0
147
0.0
147
1.0
147
0.0
147
0.0
147
0.0
147
0.0
147
1.0
  0
MATERIAL
  5
11
102
{ACAD_XDICTIONARY
360
12
102
}
102
{ACAD_REACTORS
330
10
102
}
330
10
100
AcDbMaterial
  1
ByLayer
 72
     0
 43
0.0208333333333333
 43
0.0
 43
0.0
 43
0.0
 43
0.0
 43
0.0208333333333333
 43
0.0
 43
0.0
 43
0.0
 43
0.0
 43
1.0
 43
0.0
 43
0.0
 43
0.0
 43
0.0
 43
1.0
 77
     0
 47
0.0208333333333333
 47
0.0
 47
0.0
 47
0.0
 47
0.0
 47
0.0208333333333333
 47
0.0
 47
0.0
 47
0.0
 47
0.0
 47
1.0
 47
0.0
 47
0.0
 47
0.0
 47
0.0
 47
1.0
171
     0
 49
0.0208333333333333
 49
0.0
 49
0.0
 49
0.0
 49
0.0
 49
0.0208333333333333
 49
0.0
 49
0.0
 49
0.0
 49
0.0
 49
1.0
 49
0.0
 49
0.0
 49
0.0
 49
0.0
 49
1.0
175
     0
142
0.0208333333333333
142
0.0
142
0.0
142
0.0
142
0.0
142
0.0208333333333333
142
0.0
142
0.0
142
0.0
142
0.0
142
1.0
142
0.0
142
0.0
142
0.0
142
0.0
142
1.0
179
     0
144
0.0208333333333333
144
0.0
144
0.0
144
0.0
144
0.0
144
0.0208333333333333
144
0.0
144
0.0
144
0.0
144
0.0
144
1.0
144
0.0
144
0.0
144
0.0
144
0.0
144
1.0
147
0.0208333333333333
147
0.0
147
0.0
147
0.0
147
0.0
147
0.0208333333333333
147
0.0
147
0.0
147
0.0
147
0.0
147
1.0
147
0.0
147
0.0
147
0.0
147
0.0
147
1.0
  0
MATERIAL
  5
21
102
{ACAD_XDICTIONARY
360
22
102
}
102
{ACAD_REACTORS
330
10
102
}
330
10
100
AcDbMaterial
  1
Global
 72
     0
 43
0.0208333333333333
 43
0.0
 43
0.0
 43
0.0
 43
0.0
 43
0.0208333333333333
 43
0.0
 43
0.0
 43
0.0
 43
0.0
 43
1.0
 43
0.0
 43
0.0
 43
0.0
 43
0.0
 43
1.0
 77
     0
 47
0.0208333333333333
 47
0.0
 47
0.0
 47
0.0
 47
0.0
 47
0.0208333333333333
 47
0.0
 47
0.0
 47
0.0
 47
0.0
 47
1.0
 47
0.0
 47
0.0
 47
0.0
 47
0.0
 47
1.0
171
     0
 49
0.0208333333333333
 49
0.0
 49
0.0
 49
0.0
 49
0.0
 49
0.0208333333333333
 49
0.0
 49
0.0
 49
0.0
 49
0.0
 49
1.0
 49
0.0
 49
0.0
 49
0.0
 49
0.0
 49
1.0
175
     0
142
0.0208333333333333
142
0.0
142
0.0
142
0.0
142
0.0
142
0.0208333333333333
142
0.0
142
0.0
142
0.0
142
0.0
142
1.0
142
0.0
142
0.0
142
0.0
142
0.0
142
1.0
179
     0
144
0.0208333333333333
144
0.0
144
0.0
144
0.0
144
0.0
144
0.0208333333333333
144
0.0
144
0.0
144
0.0
144
0.0
144
1.0
144
0.0
144
0.0
144
0.0
144
0.0
144
1.0
147
0.0208333333333333
147
0.0
147
0.0
147
0.0
147
0.0
147
0.0208333333333333
147
0.0
147
0.0
147
0.0
147
0.0
147
1.0
147
0.0
147
0.0
147
0.0
147
0.0
147
1.0
  0
MLEADERSTYLE
  5
67
102
{ACAD_XDICTIONARY
360
6CC
102
}
102
{ACAD_REACTORS
330
66
330
386
330
387
330
388
330
38B
330
398
330
399
330
39A
330
39D
102
}
330
66
100
AcDbMLeaderStyle
170
     2
171
     1
172
     0
 90
        2
 40
0.0
 41
0.0
173
     1
 91
-1056964608
340
5B
 92
       -2
290
     1
 42
0.09
291
     1
 43
0.36
  3
Standard
 44
0.18
300

342
55
174
     1
178
     6
175
     1
176
     0
 93
-1056964608
 45
0.18
292
     0
297
     0
 46
0.18
 94
-1056964608
 47
1.0
 49
1.0
140
1.0
293
     1
141
0.0
294
     1
177
     0
142
1.0
295
     0
296
     0
143
0.125
1001
ACAD_MLEADERVER
1070
     2
  0
MLINESTYLE
  5
60
102
{ACAD_REACTORS
330
5F
102
}
330
5F
100
AcDbMlineStyle
  2
STANDARD
 70
     0
  3

 62
   256
 51
90.0
 52
90.0
 71
     2
 49
0.5
 62
   256
  6
BYLAYER
 49
-0.5
 62
   256
  6
BYLAYER
  0
ACDBPLACEHOLDER
  5
F
102
{ACAD_REACTORS
330
E
102
}
330
E
  0
SCALE
  5
43
102
{ACAD_REACTORS
330
42
102
}
330
42
100
AcDbScale
 70
     0
300
1:1
140
1.0
141
1.0
290
     1
  0
SCALE
  5
44
102
{ACAD_REACTORS
330
42
102
}
330
42
100
AcDbScale
 70
     0
300
1/128" = 1'-0"
140
0.0078125
141
12.0
290
     0
  0
SCALE
  5
45
102
{ACAD_REACTORS
330
42
102
}
330
42
100
AcDbScale
 70
     0
300
1/64" = 1'-0"
140
0.015625
141
12.0
290
     0
  0
SCALE
  5
46
102
{ACAD_REACTORS
330
42
102
}
330
42
100
AcDbScale
 70
     0
300
1/32" = 1'-0"
140
0.03125
141
12.0
290
     0
  0
SCALE
  5
47
102
{ACAD_REACTORS
330
42
102
}
330
42
100
AcDbScale
 70
     0
300
1/16" = 1'-0"
140
0.0625
141
12.0
290
     0
  0
SCALE
  5
48
102
{ACAD_REACTORS
330
42
102
}
330
42
100
AcDbScale
 70
     0
300
3/32" = 1'-0"
140
0.09375
141
12.0
290
     0
  0
SCALE
  5
49
102
{ACAD_REACTORS
330
42
102
}
330
42
100
AcDbScale
 70
     0
300
1/8" = 1'-0"
140
0.125
141
12.0
290
     0
  0
SCALE
  5
4A
102
{ACAD_REACTORS
330
42
102
}
330
42
100
AcDbScale
 70
     0
300
3/16" = 1'-0"
140
0.1875
141
12.0
290
     0
  0
SCALE
  5
4B
102
{ACAD_REACTORS
330
42
102
}
330
42
100
AcDbScale
 70
     0
300
1/4" = 1'-0"
140
0.25
141
12.0
290
     0
  0
SCALE
  5
4C
102
{ACAD_REACTORS
330
42
102
}
330
42
100
AcDbScale
 70
     0
300
3/8" = 1'-0"
140
0.375
141
12.0
290
     0
  0
SCALE
  5
4D
102
{ACAD_REACTORS
330
42
102
}
330
42
100
AcDbScale
 70
     0
300
1/2" = 1'-0"
140
0.5
141
12.0
290
     0
  0
SCALE
  5
4E
102
{ACAD_REACTORS
330
42
102
}
330
42
100
AcDbScale
 70
     0
300
3/4" = 1'-0"
140
0.75
141
12.0
290
     0
  0
SCALE
  5
4F
102
{ACAD_REACTORS
330
42
102
}
330
42
100
AcDbScale
 70
     0
300
1" = 1'-0"
140
1.0
141
12.0
290
     0
  0
SCALE
  5
50
102
{ACAD_REACTORS
330
42
102
}
330
42
100
AcDbScale
 70
     0
300
1-1/2" = 1'-0"
140
1.5
141
12.0
290
     0
  0
SCALE
  5
51
102
{ACAD_REACTORS
330
42
102
}
330
42
100
AcDbScale
 70
     0
300
3" = 1'-0"
140
3.0
141
12.0
290
     0
  0
SCALE
  5
52
102
{ACAD_REACTORS
330
42
102
}
330
42
100
AcDbScale
 70
     0
300
6" = 1'-0"
140
6.0
141
12.0
290
     0
  0
SCALE
  5
53
102
{ACAD_REACTORS
330
42
102
}
330
42
100
AcDbScale
 70
     0
300
1'-0" = 1'-0"
140
12.0
141
12.0
290
     0
  0
ACDBSECTIONVIEWSTYLE
  5
69
102
{ACAD_XDICTIONARY
360
113
102
}
102
{ACAD_REACTORS
330
68
102
}
330
68
100
AcDbModelDocViewStyle
 70
     0
  3
Imperial24
290
     0
100
AcDbSectionViewStyle
 70
     0
 71
     0
 90
       78
 71
     1
340
55
 62
   256
 40
0.24
340
0
340
0
 62
   256
 40
0.24
300
I, O, Q, S, X, Z
 40
0.48
 90
        3
 40
0.18
 90
        1
 71
     2
340
5D
 90
       25
 62
   256
340
5D
 90
       50
 62
   256
 40
0.24
 40
0.0
 40
0.24
 71
     3
340
55
 62
   256
 40
0.24
 90
        1
 40
0.75
 90
        1
300
%<\AcVar ViewType \f "%tc1">% %<\AcVar ViewSectionStartId>%-%<\AcVar ViewSectionEndId>%\PSCALE %<\AcVar ViewScale \f "%sn">%
 71
     4
 62
   256
 62
   257
300
ANSI31
 40
1.0
 90
        0
290
     0
290
     0
 90
        6
 40
0.0
 40
1.570796326794896
 40
0.2617993877991494
 40
1.308996938995747
 40
-0.2617993877991494
 40
1.832595714594046
  0
TABLESTYLE
  5
65
102
{ACAD_XDICTIONARY
360
690
102
}
102
{ACAD_REACTORS
330
64
102
}
330
64
100
AcDbTableStyle
  3
Standard
 70
     0
 71
     0
 40
0.06
 41
0.06
280
     0
281
     0
  7
Standard
140
0.18
170
     2
 62
     0
 63
     7
283
     0
 90
      512
 91
        0
  1

274
    -2
284
     1
 64
     0
275
    -2
285
     1
 65
     0
276
    -2
286
     1
 66
     0
277
    -2
287
     1
 67
     0
278
    -2
288
     1
 68
     0
279
    -2
289
     1
 69
     0
  7
Standard
140
0.25
170
     5
 62
     0
 63
     7
283
     0
 90
      512
 91
        0
  1

274
    -2
284
     1
 64
     0
275
    -2
285
     1
 65
     0
276
    -2
286
     1
 66
     0
277
    -2
287
     1
 67
     0
278
    -2
288
     1
 68
     0
279
    -2
289
     1
 69
     0
  7
Standard
140
0.18
170
     5
 62
     0
 63
     7
283
     0
 90
      512
 91
        0
  1

274
    -2
284
     1
 64
     0
275
    -2
285
     1
 65
     0
276
    -2
286
     1
 66
     0
277
    -2
287
     1
 67
     0
278
    -2
288
     1
 68
     0
279
    -2
289
     1
 69
     0
  0
VISUALSTYLE
  5
2F
102
{ACAD_XDICTIONARY
360
6A5
102
}
102
{ACAD_REACTORS
330
29
102
}
330
29
100
AcDbVisualStyle
  2
2dWireframe
 70
     4
 71
     0
 72
     2
 73
     0
 90
        0
 40
-0.6
 41
-30.0
 62
     5
 63
     7
421
 16777215
 74
     1
 91
        4
 64
     7
 65
   257
 75
     1
175
     1
 42
1.0
 92
        0
 66
   257
 43
1.0
 76
     1
 77
     6
 78
     2
 67
     7
 79
     5
170
     0
171
     0
290
     0
174
     0
 93
        1
 44
0.0
173
     0
291
     0
 45
0.0
1001
ACAD
1000
AcDbSavedByObjectVersion
1070
     0
  0
VISUALSTYLE
  5
2E8
102
{ACAD_XDICTIONARY
360
6D0
102
}
102
{ACAD_REACTORS
330
29
102
}
330
29
100
AcDbVisualStyle
  2
3dWireframe
 70
     5
 71
     0
 72
     2
 73
     0
 90
        0
 40
-0.6
 41
-30.0
 62
     5
 63
     7
421
 16777215
 74
     1
 91
        4
 64
     7
 65
   257
 75
     1
175
     1
 42
1.0
 92
        0
 66
   257
 43
1.0
 76
     1
 77
     6
 78
     2
 67
     7
 79
     5
170
     0
171
     0
290
     0
174
     0
 93
        1
 44
0.0
173
     0
291
     0
 45
0.0
1001
ACAD
1000
AcDbSavedByObjectVersion
1070
     0
  0
VISUALSTYLE
  5
2E
102
{ACAD_XDICTIONARY
360
6A3
102
}
102
{ACAD_REACTORS
330
29
102
}
330
29
100
AcDbVisualStyle
  2
Basic
 70
     7
 71
     1
 72
     0
 73
     1
 90
        0
 40
-0.6
 41
-30.0
 62
     5
 63
     7
421
 16777215
 74
     0
 91
        4
 64
     7
 65
   257
 75
     1
175
     1
 42
1.0
 92
        8
 66
     7
 43
1.0
 76
     1
 77
     6
 78
     2
 67
     7
 79
     5
170
     0
171
     0
290
     0
174
     0
 93
        1
 44
0.0
173
     0
291
     1
 45
0.0
1001
ACAD
1000
AcDbSavedByObjectVersion
1070
     0
  0
VISUALSTYLE
  5
35
102
{ACAD_XDICTIONARY
360
6B1
102
}
102
{ACAD_REACTORS
330
29
102
}
330
29
100
AcDbVisualStyle
  2
Brighten
 70
    12
 71
     2
 72
     2
 73
     0
 90
        0
 40
-0.6
 41
-30.0
 62
     5
 63
     7
421
 16777215
 74
     1
 91
        4
 64
     7
 65
   257
 75
     1
175
     1
 42
1.0
 92
        8
 66
     7
 43
1.0
 76
     1
 77
     6
 78
     2
 67
     7
 79
     5
170
     0
171
     0
290
     0
174
     0
 93
        1
 44
50.0
173
     0
291
     1
 45
0.0
1001
ACAD
1000
AcDbSavedByObjectVersion
1070
     0
  0
VISUALSTYLE
  5
39
102
{ACAD_XDICTIONARY
360
6B9
102
}
102
{ACAD_REACTORS
330
29
102
}
330
29
100
AcDbVisualStyle
  2
ColorChange
 70
    16
 71
     2
 72
     2
 73
     3
 90
        0
 40
-0.6
 41
-30.0
 62
     5
 63
     8
421
  8421504
 74
     1
 91
        4
 64
     7
 65
   257
 75
     1
175
     1
 42
1.0
 92
        8
 66
     8
424
  8421504
 43
1.0
 76
     1
 77
     6
 78
     2
 67
     7
 79
     5
170
     0
171
     0
290
     0
174
     0
 93
        1
 44
0.0
173
     0
291
     1
 45
0.0
1001
ACAD
1000
AcDbSavedByObjectVersion
1070
     0
  0
VISUALSTYLE
  5
32
102
{ACAD_XDICTIONARY
360
6AB
102
}
102
{ACAD_REACTORS
330
29
102
}
330
29
100
AcDbVisualStyle
  2
Conceptual
 70
     9
 71
     3
 72
     2
 73
     0
 90
        0
 40
-0.6
 41
-30.0
 62
     5
 63
     7
421
 16777215
 74
     2
 91
        2
 64
     7
 65
   257
 75
     1
175
     1
 42
179.0
 92
        8
 66
     7
 43
1.0
 76
     1
 77
     6
 78
     2
 67
     7
 79
     3
170
     0
171
     0
290
     0
174
     0
 93
        1
 44
0.0
173
     0
291
     0
 45
0.0
1001
ACAD
1000
AcDbSavedByObjectVersion
1070
     0
  0
VISUALSTYLE
  5
34
102
{ACAD_XDICTIONARY
360
6AF
102
}
102
{ACAD_REACTORS
330
29
102
}
330
29
100
AcDbVisualStyle
  2
Dim
 70
    11
 71
     2
 72
     2
 73
     0
 90
        0
 40
-0.6
 41
-30.0
 62
     5
 63
     7
421
 16777215
 74
     1
 91
        4
 64
     7
 65
   257
 75
     1
175
     1
 42
1.0
 92
        8
 66
     7
 43
1.0
 76
     1
 77
     6
 78
     2
 67
     7
 79
     5
170
     0
171
     0
290
     0
174
     0
 93
        1
 44
-50.0
173
     0
291
     1
 45
0.0
1001
ACAD
1000
AcDbSavedByObjectVersion
1070
     0
  0
VISUALSTYLE
  5
41
102
{ACAD_XDICTIONARY
360
6C9
102
}
102
{ACAD_REACTORS
330
29
102
}
330
29
100
AcDbVisualStyle
  2
EdgeColorOff
 70
    22
 71
     2
 72
     2
 73
     0
 90
        0
 40
-0.6
 41
-30.0
 62
     5
 63
     7
421
 16777215
 74
     1
 91
        4
 64
     7
 65
   257
 75
     1
175
     1
 42
1.0
 92
        8
 66
     7
 43
1.0
 76
     1
 77
     6
 78
     2
 67
     7
 79
     5
170
     0
171
     0
290
     0
174
     0
 93
        1
 44
0.0
173
     0
291
     1
 45
0.0
1001
ACAD
1000
AcDbSavedByObjectVersion
1070
     0
  0
VISUALSTYLE
  5
38
102
{ACAD_XDICTIONARY
360
6B7
102
}
102
{ACAD_REACTORS
330
29
102
}
330
29
100
AcDbVisualStyle
  2
Facepattern
 70
    15
 71
     2
 72
     2
 73
     0
 90
        0
 40
-0.6
 41
-30.0
 62
     5
 63
     7
421
 16777215
 74
     1
 91
        4
 64
     7
 65
   257
 75
     1
175
     1
 42
1.0
 92
        8
 66
     7
 43
1.0
 76
     1
 77
     6
 78
     2
 67
     7
 79
     5
170
     0
171
     0
290
     0
174
     0
 93
        1
 44
0.0
173
     0
291
     1
 45
0.0
1001
ACAD
1000
AcDbSavedByObjectVersion
1070
     0
  0
VISUALSTYLE
  5
2A
102
{ACAD_XDICTIONARY
360
69B
102
}
102
{ACAD_REACTORS
330
29
102
}
330
29
100
AcDbVisualStyle
  2
Flat
 70
     0
 71
     2
 72
     1
 73
     1
 90
        2
 40
-0.6
 41
30.0
 62
     5
 63
     7
421
 16777215
 74
     0
 91
        0
 64
     7
 65
   257
 75
     1
175
     1
 42
1.0
 92
        8
 66
     7
 43
1.0
 76
     1
 77
     6
 78
     2
 67
     7
 79
     5
170
     0
171
     0
290
     0
174
     0
 93
       13
 44
0.0
173
     0
291
     1
 45
0.0
1001
ACAD
1000
AcDbSavedByObjectVersion
1070
     0
  0
VISUALSTYLE
  5
2B
102
{ACAD_XDICTIONARY
360
69D
102
}
102
{ACAD_REACTORS
330
29
102
}
330
29
100
AcDbVisualStyle
  2
FlatWithEdges
 70
     1
 71
     2
 72
     1
 73
     1
 90
        2
 40
-0.6
 41
30.0
 62
     5
 63
     7
421
 16777215
 74
     1
 91
        0
 64
     7
 65
   257
 75
     1
175
     1
 42
1.0
 92
        0
 66
   257
 43
1.0
 76
     1
 77
     6
 78
     2
 67
     7
 79
     5
170
     0
171
     0
290
     0
174
     0
 93
       13
 44
0.0
173
     0
291
     1
 45
0.0
1001
ACAD
1000
AcDbSavedByObjectVersion
1070
     0
  0
VISUALSTYLE
  5
2C
102
{ACAD_XDICTIONARY
360
69F
102
}
102
{ACAD_REACTORS
330
29
102
}
330
29
100
AcDbVisualStyle
  2
Gouraud
 70
     2
 71
     2
 72
     2
 73
     1
 90
        2
 40
-0.6
 41
30.0
 62
     5
 63
     7
421
 16777215
 74
     0
 91
        0
 64
     7
 65
   257
 75
     1
175
     1
 42
1.0
 92
        0
 66
     7
 43
1.0
 76
     1
 77
     6
 78
     2
 67
     7
 79
     5
170
     0
171
     0
290
     0
174
     0
 93
       13
 44
0.0
173
     0
291
     1
 45
0.0
1001
ACAD
1000
AcDbSavedByObjectVersion
1070
     0
  0
VISUALSTYLE
  5
2D
102
{ACAD_XDICTIONARY
360
6A1
102
}
102
{ACAD_REACTORS
330
29
102
}
330
29
100
AcDbVisualStyle
  2
GouraudWithEdges
 70
     3
 71
     2
 72
     2
 73
     1
 90
        2
 40
-0.6
 41
30.0
 62
     5
 63
     7
421
 16777215
 74
     1
 91
        0
 64
     7
 65
   257
 75
     1
175
     1
 42
1.0
 92
        0
 66
   257
 43
1.0
 76
     1
 77
     6
 78
     2
 67
     7
 79
     5
170
     0
171
     0
290
     0
174
     0
 93
       13
 44
0.0
173
     0
291
     1
 45
0.0
1001
ACAD
1000
AcDbSavedByObjectVersion
1070
     0
  0
VISUALSTYLE
  5
31
102
{ACAD_XDICTIONARY
360
6A9
102
}
102
{ACAD_REACTORS
330
29
102
}
330
29
100
AcDbVisualStyle
  2
Hidden
 70
     6
 71
     1
 72
     2
 73
     2
 90
        0
 40
-0.6
 41
-30.0
 62
     5
 63
     7
421
 16777215
 74
     2
 91
        2
 64
     7
 65
   257
 75
     2
175
     1
 42
40.0
 92
        0
 66
   257
 43
1.0
 76
     1
 77
     6
 78
     2
 67
     7
 79
     3
170
     0
171
     0
290
     0
174
     0
 93
        1
 44
0.0
173
     0
291
     0
 45
0.0
1001
ACAD
1000
AcDbSavedByObjectVersion
1070
     0
  0
VISUALSTYLE
  5
3F
102
{ACAD_XDICTIONARY
360
6C5
102
}
102
{ACAD_REACTORS
330
29
102
}
330
29
100
AcDbVisualStyle
  2
JitterOff
 70
    20
 71
     2
 72
     2
 73
     0
 90
        0
 40
-0.6
 41
-30.0
 62
     5
 63
     7
421
 16777215
 74
     1
 91
        4
 64
     7
 65
   257
 75
     1
175
     1
 42
1.0
 92
       10
 66
     7
 43
1.0
 76
     1
 77
     6
 78
     2
 67
     7
 79
     5
170
     0
171
     0
290
     0
174
     0
 93
        1
 44
0.0
173
     0
291
     1
 45
0.0
1001
ACAD
1000
AcDbSavedByObjectVersion
1070
     0
  0
VISUALSTYLE
  5
37
102
{ACAD_XDICTIONARY
360
6B5
102
}
102
{ACAD_REACTORS
330
29
102
}
330
29
100
AcDbVisualStyle
  2
Linepattern
 70
    14
 71
     2
 72
     2
 73
     0
 90
        0
 40
-0.6
 41
-30.0
 62
     5
 63
     7
421
 16777215
 74
     1
 91
        4
 64
     7
 65
   257
 75
     7
175
     7
 42
1.0
 92
        8
 66
     7
 43
1.0
 76
     1
 77
     6
 78
     2
 67
     7
 79
     5
170
     0
171
     0
290
     0
174
     0
 93
        1
 44
0.0
173
     0
291
     1
 45
0.0
1001
ACAD
1000
AcDbSavedByObjectVersion
1070
     0
  0
VISUALSTYLE
  5
40
102
{ACAD_XDICTIONARY
360
6C7
102
}
102
{ACAD_REACTORS
330
29
102
}
330
29
100
AcDbVisualStyle
  2
OverhangOff
 70
    21
 71
     2
 72
     2
 73
     0
 90
        0
 40
-0.6
 41
-30.0
 62
     5
 63
     7
421
 16777215
 74
     1
 91
        4
 64
     7
 65
   257
 75
     1
175
     1
 42
1.0
 92
        9
 66
     7
 43
1.0
 76
     1
 77
     6
 78
     2
 67
     7
 79
     5
170
     0
171
     0
290
     0
174
     0
 93
        1
 44
0.0
173
     0
291
     1
 45
0.0
1001
ACAD
1000
AcDbSavedByObjectVersion
1070
     0
  0
VISUALSTYLE
  5
33
102
{ACAD_XDICTIONARY
360
6AD
102
}
102
{ACAD_REACTORS
330
29
102
}
330
29
100
AcDbVisualStyle
  2
Realistic
 70
     8
 71
     2
 72
     3
 73
     0
 90
        2
 40
-0.6
 41
30.0
 62
     5
 63
     7
421
 16777215
 74
     0
 91
        0
 64
     7
 65
   257
 75
     1
175
     1
 42
1.0
 92
        8
 66
   257
 43
1.0
 76
     1
 77
     6
 78
     2
 67
     7
 79
     3
170
     0
171
     0
290
     0
174
     0
 93
       13
 44
0.0
173
     0
291
     0
 45
0.0
1001
ACAD
1000
AcDbSavedByObjectVersion
1070
     0
  0
VISUALSTYLE
  5
3E
102
{ACAD_XDICTIONARY
360
6C3
102
}
102
{ACAD_REACTORS
330
29
102
}
330
29
100
AcDbVisualStyle
  2
Shaded
 70
    27
 71
     2
 72
     2
 73
     1
 90
        2
 40
-0.6
 41
30.0
 62
     5
 63
     7
421
 16777215
 74
     0
 91
        4
 64
     7
 65
   257
 75
     1
175
     1
 42
1.0
 92
        8
 66
   257
 43
1.0
 76
     1
 77
     6
 78
     2
 67
     8
425
  7895160
 79
     3
170
     0
171
     0
290
     0
174
     0
 93
        5
 44
0.0
173
     0
291
     0
 45
0.0
1001
ACAD
1000
AcDbSavedByObjectVersion
1070
     0
  0
VISUALSTYLE
  5
3D
102
{ACAD_XDICTIONARY
360
6C1
102
}
102
{ACAD_REACTORS
330
29
102
}
330
29
100
AcDbVisualStyle
  2
Shaded with edges
 70
    26
 71
     2
 72
     2
 73
     1
 90
        2
 40
-0.6
 41
30.0
 62
     5
 63
     7
421
 16777215
 74
     1
 91
       10
 64
     7
 65
   257
 75
     2
175
     1
 42
1.0
 92
        8
 66
   257
 43
1.0
 76
     1
 77
     6
 78
     2
 67
     7
 79
     3
170
     0
171
     0
290
     0
174
     0
 93
        5
 44
0.0
173
     0
291
     0
 45
0.0
1001
ACAD
1000
AcDbSavedByObjectVersion
1070
     0
  0
VISUALSTYLE
  5
3A
102
{ACAD_XDICTIONARY
360
6BB
102
}
102
{ACAD_REACTORS
330
29
102
}
330
29
100
AcDbVisualStyle
  2
Shades of Gray
 70
    23
 71
     2
 72
     2
 73
     3
 90
        0
 40
-0.6
 41
-30.0
 62
     5
 63
     7
421
 16777215
 74
     2
 91
        2
 64
     7
 65
     7
 75
     1
175
     1
 42
40.0
 92
        8
 66
     7
 43
1.0
 76
     1
 77
     6
 78
     2
 67
     7
 79
     3
170
     0
171
     0
290
     0
174
     0
 93
        1
 44
0.0
173
     0
291
     0
 45
0.0
1001
ACAD
1000
AcDbSavedByObjectVersion
1070
     0
  0
VISUALSTYLE
  5
3B
102
{ACAD_XDICTIONARY
360
6BD
102
}
102
{ACAD_REACTORS
330
29
102
}
330
29
100
AcDbVisualStyle
  2
Sketchy
 70
    24
 71
     1
 72
     2
 73
     2
 90
        0
 40
-0.6
 41
-30.0
 62
     5
 63
     7
421
 16777215
 74
     2
 91
        2
 64
     7
 65
     7
 75
     1
175
     1
 42
40.0
 92
       11
 66
     7
 43
1.0
 76
     1
 77
     6
 78
     2
 67
     7
 79
     6
170
     0
171
     0
290
     0
174
     0
 93
        1
 44
0.0
173
     0
291
     0
 45
0.0
1001
ACAD
1000
AcDbSavedByObjectVersion
1070
     0
  0
VISUALSTYLE
  5
36
102
{ACAD_XDICTIONARY
360
6B3
102
}
102
{ACAD_REACTORS
330
29
102
}
330
29
100
AcDbVisualStyle
  2
Thicken
 70
    13
 71
     2
 72
     2
 73
     0
 90
        0
 40
-0.6
 41
-30.0
 62
     5
 63
     7
421
 16777215
 74
     1
 91
        4
 64
     7
 65
   257
 75
     1
175
     1
 42
1.0
 92
       12
 66
     7
 43
1.0
 76
     1
 77
     6
 78
     2
 67
     7
 79
     5
170
     0
171
     0
290
     0
174
     0
 93
        1
 44
0.0
173
     0
291
     1
 45
0.0
1001
ACAD
1000
AcDbSavedByObjectVersion
1070
     0
  0
VISUALSTYLE
  5
30
102
{ACAD_XDICTIONARY
360
6A7
102
}
102
{ACAD_REACTORS
330
29
102
}
330
29
100
AcDbVisualStyle
  2
Wireframe
 70
     5
 71
     0
 72
     2
 73
     0
 90
        0
 40
-0.6
 41
-30.0
 62
     5
 63
     7
421
 16777215
 74
     1
 91
        4
 64
     7
 65
   257
 75
     1
175
     1
 42
1.0
 92
        0
 66
   257
 43
1.0
 76
     1
 77
     6
 78
     2
 67
     7
 79
     3
170
     0
171
     0
290
     0
174
     0
 93
        1
 44
0.0
173
     0
291
     0
 45
0.0
1001
ACAD
1000
AcDbSavedByObjectVersion
1070
     0
  0
VISUALSTYLE
  5
3C
102
{ACAD_XDICTIONARY
360
6BF
102
}
102
{ACAD_REACTORS
330
29
102
}
330
29
100
AcDbVisualStyle
  2
X-Ray
 70
    25
 71
     2
 72
     2
 73
     1
 90
        1
 40
0.5
 41
-30.0
 62
     5
 63
     7
421
 16777215
 74
     1
 91
        0
 64
     7
 65
   257
 75
     1
175
     1
 42
1.0
 92
        8
 66
     7
 43
1.0
 76
     1
 77
     6
 78
     2
 67
     7
 79
     3
170
     0
171
     0
290
     0
174
     0
 93
       13
 44
0.0
173
     0
291
     0
 45
0.0
1001
ACAD
1000
AcDbSavedByObjectVersion
1070
     0
  0
DICTIONARYVAR
  5
11D
102
{ACAD_REACTORS
330
118
102
}
330
118
100
DictionaryVariables
280
     0
  1
1:1
  0
DICTIONARYVAR
  5
11A
102
{ACAD_REACTORS
330
118
102
}
330
118
100
DictionaryVariables
280
     0
  1
STANDARD
  0
DICTIONARYVAR
  5
119
102
{ACAD_REACTORS
330
118
102
}
330
118
100
DictionaryVariables
280
     0
  1
STANDARD
  0
DICTIONARYVAR
  5
11B
102
{ACAD_REACTORS
330
118
102
}
330
118
100
DictionaryVariables
280
     0
  1
Imperial24
  0
DICTIONARYVAR
  5
11C
102
{ACAD_REACTORS
330
118
102
}
330
118
100
DictionaryVariables
280
     0
  1
Imperial24
  0
DICTIONARYVAR
  5
2A9
102
{ACAD_REACTORS
330
118
102
}
330
118
100
DictionaryVariables
280
     0
  1
2
  0
DICTIONARY
  5
69A
102
{ACAD_REACTORS
330
698
102
}
330
698
100
AcDbDictionary
281
     1
  0
DICTIONARY
  5
699
102
{ACAD_REACTORS
330
698
102
}
330
698
100
AcDbDictionary
281
     1
  3
8796087674928
350
693
  3
8796087674944
350
694
  3
8796087674960
350
695
  3
8796087674976
350
696
  3
8796087674992
350
697
  0
XRECORD
  5
110
102
{ACAD_REACTORS
330
10E
102
}
330
10E
100
AcDbXrecord
280
     1
  1
BUILDING_ID
  1
Sink-Undercounter-American_Standard-Estate_0484
  1
FLOOR_ID
  1
35
  0
XRECORD
  5
10F
102
{ACAD_REACTORS
330
10E
102
}
330
10E
100
AcDbXrecord
280
     1
  1
-2001160
  1
Plumbing Fixtures
  0
DICTIONARY
  5
115
330
6B
100
AcDbDictionary
280
     1
281
     1
  3
ACAD_XREC_ROUNDTRIP
360
6CF
  0
DICTIONARY
  5
1A
330
19
100
AcDbDictionary
280
     1
281
     1
  3
BUMPTILE
360
1C
  3
DIFFUSETILE
360
1B
  3
OPACITYTILE
360
1F
  3
REFLECTIONTILE
360
1E
  3
REFRACTIONTILE
360
20
  3
SPECULARTILE
360
1D
  0
DICTIONARY
  5
12
330
11
100
AcDbDictionary
280
     1
281
     1
  3
BUMPTILE
360
14
  3
DIFFUSETILE
360
13
  3
OPACITYTILE
360
17
  3
REFLECTIONTILE
360
16
  3
REFRACTIONTILE
360
18
  3
SPECULARTILE
360
15
  0
DICTIONARY
  5
22
330
21
100
AcDbDictionary
280
     1
281
     1
  3
BUMPTILE
360
24
  3
DIFFUSETILE
360
23
  3
OPACITYTILE
360
27
  3
REFLECTIONTILE
360
26
  3
REFRACTIONTILE
360
28
  3
SPECULARTILE
360
25
  0
DICTIONARY
  5
6CC
330
67
100
AcDbDictionary
280
     1
281
     1
  3
ACAD_XREC_ROUNDTRIP
360
6CD
  0
DICTIONARY
  5
113
330
69
100
AcDbDictionary
280
     1
281
     1
  3
ACAD_XREC_ROUNDTRIP
360
6CE
  0
DICTIONARY
  5
690
330
65
100
AcDbDictionary
280
     1
281
     1
  3
ACAD_ROUNDTRIP_2008_TABLESTYLE_CELLSTYLEMAP
360
691
  0
DICTIONARY
  5
6A5
330
2F
100
AcDbDictionary
280
     1
281
     1
  3
ACAD_XREC_ROUNDTRIP
360
6A6
  0
DICTIONARY
  5
6D0
330
2E8
100
AcDbDictionary
280
     1
281
     1
  3
ACAD_XREC_ROUNDTRIP
360
6D1
  0
DICTIONARY
  5
6A3
330
2E
100
AcDbDictionary
280
     1
281
     1
  3
ACAD_XREC_ROUNDTRIP
360
6A4
  0
DICTIONARY
  5
6B1
330
35
100
AcDbDictionary
280
     1
281
     1
  3
ACAD_XREC_ROUNDTRIP
360
6B2
  0
DICTIONARY
  5
6B9
330
39
100
AcDbDictionary
280
     1
281
     1
  3
ACAD_XREC_ROUNDTRIP
360
6BA
  0
DICTIONARY
  5
6AB
330
32
100
AcDbDictionary
280
     1
281
     1
  3
ACAD_XREC_ROUNDTRIP
360
6AC
  0
DICTIONARY
  5
6AF
330
34
100
AcDbDictionary
280
     1
281
     1
  3
ACAD_XREC_ROUNDTRIP
360
6B0
  0
DICTIONARY
  5
6C9
330
41
100
AcDbDictionary
280
     1
281
     1
  3
ACAD_XREC_ROUNDTRIP
360
6CA
  0
DICTIONARY
  5
6B7
330
38
100
AcDbDictionary
280
     1
281
     1
  3
ACAD_XREC_ROUNDTRIP
360
6B8
  0
DICTIONARY
  5
69B
330
2A
100
AcDbDictionary
280
     1
281
     1
  3
ACAD_XREC_ROUNDTRIP
360
69C
  0
DICTIONARY
  5
69D
330
2B
100
AcDbDictionary
280
     1
281
     1
  3
ACAD_XREC_ROUNDTRIP
360
69E
  0
DICTIONARY
  5
69F
330
2C
100
AcDbDictionary
280
     1
281
     1
  3
ACAD_XREC_ROUNDTRIP
360
6A0
  0
DICTIONARY
  5
6A1
330
2D
100
AcDbDictionary
280
     1
281
     1
  3
ACAD_XREC_ROUNDTRIP
360
6A2
  0
DICTIONARY
  5
6A9
330
31
100
AcDbDictionary
280
     1
281
     1
  3
ACAD_XREC_ROUNDTRIP
360
6AA
  0
DICTIONARY
  5
6C5
330
3F
100
AcDbDictionary
280
     1
281
     1
  3
ACAD_XREC_ROUNDTRIP
360
6C6
  0
DICTIONARY
  5
6B5
330
37
100
AcDbDictionary
280
     1
281
     1
  3
ACAD_XREC_ROUNDTRIP
360
6B6
  0
DICTIONARY
  5
6C7
330
40
100
AcDbDictionary
280
     1
281
     1
  3
ACAD_XREC_ROUNDTRIP
360
6C8
  0
DICTIONARY
  5
6AD
330
33
100
AcDbDictionary
280
     1
281
     1
  3
ACAD_XREC_ROUNDTRIP
360
6AE
  0
DICTIONARY
  5
6C3
330
3E
100
AcDbDictionary
280
     1
281
     1
  3
ACAD_XREC_ROUNDTRIP
360
6C4
  0
DICTIONARY
  5
6C1
330
3D
100
AcDbDictionary
280
     1
281
     1
  3
ACAD_XREC_ROUNDTRIP
360
6C2
  0
DICTIONARY
  5
6BB
330
3A
100
AcDbDictionary
280
     1
281
     1
  3
ACAD_XREC_ROUNDTRIP
360
6BC
  0
DICTIONARY
  5
6BD
330
3B
100
AcDbDictionary
280
     1
281
     1
  3
ACAD_XREC_ROUNDTRIP
360
6BE
  0
DICTIONARY
  5
6B3
330
36
100
AcDbDictionary
280
     1
281
     1
  3
ACAD_XREC_ROUNDTRIP
360
6B4
  0
DICTIONARY
  5
6A7
330
30
100
AcDbDictionary
280
     1
281
     1
  3
ACAD_XREC_ROUNDTRIP
360
6A8
  0
DICTIONARY
  5
6BF
330
3C
100
AcDbDictionary
280
     1
281
     1
  3
ACAD_XREC_ROUNDTRIP
360
6C0
  0
XRECORD
  5
693
102
{ACAD_REACTORS
330
699
102
}
330
699
100
AcDbXrecord
280
     1
  1
AcDb_Thumbnail_Schema
102
{ATTRRECORD
341
694
  2
AcDbDs::TreatedAsObjectData
280
     1
291
     1
102
ATTRRECORD}
102
{ATTRRECORD
341
695
  2
AcDbDs::Legacy
280
     1
291
     1
102
ATTRRECORD}
  2
AcDbDs::ID
280
    10
 91
        8
102
{ATTRRECORD
341
696
  2
AcDs:Indexable
280
     1
291
     1
102
ATTRRECORD}
102
{ATTRRECORD
341
697
  2
AcDbDs::HandleAttribute
280
     7
282
     1
102
ATTRRECORD}
  2
Thumbnail_Data
280
    15
 91
        0
  0
XRECORD
  5
694
102
{ACAD_REACTORS
330
699
102
}
330
699
100
AcDbXrecord
280
     1
  1
AcDbDs::TreatedAsObjectDataSchema
  2
AcDbDs::TreatedAsObjectData
280
     1
 91
        0
  0
XRECORD
  5
695
102
{ACAD_REACTORS
330
699
102
}
330
699
100
AcDbXrecord
280
     1
  1
AcDbDs::LegacySchema
  2
AcDbDs::Legacy
280
     1
 91
        0
  0
XRECORD
  5
696
102
{ACAD_REACTORS
330
699
102
}
330
699
100
AcDbXrecord
280
     1
  1
AcDbDs::IndexedPropertySchema
  2
AcDs:Indexable
280
     1
 91
        0
  0
XRECORD
  5
697
102
{ACAD_REACTORS
330
699
102
}
330
699
100
AcDbXrecord
280
     1
  1
AcDbDs::HandleAttributeSchema
  2
AcDbDs::HandleAttribute
280
     7
 91
        1
284
     1
  0
XRECORD
  5
6CF
102
{ACAD_REACTORS
330
115
102
}
330
115
100
AcDbXrecord
280
     1
102
DISPLAYNAME
  1
Imperial24
102
FLAGS
 90
        0
  0
XRECORD
  5
1C
102
{ACAD_REACTORS
330
1A
102
}
330
1A
100
AcDbXrecord
280
     1
270
     1
271
     1
  0
XRECORD
  5
1B
102
{ACAD_REACTORS
330
1A
102
}
330
1A
100
AcDbXrecord
280
     1
270
     1
271
     1
  0
XRECORD
  5
1F
102
{ACAD_REACTORS
330
1A
102
}
330
1A
100
AcDbXrecord
280
     1
270
     1
271
     1
  0
XRECORD
  5
1E
102
{ACAD_REACTORS
330
1A
102
}
330
1A
100
AcDbXrecord
280
     1
270
     1
271
     1
  0
XRECORD
  5
20
102
{ACAD_REACTORS
330
1A
102
}
330
1A
100
AcDbXrecord
280
     1
270
     1
271
     1
  0
XRECORD
  5
1D
102
{ACAD_REACTORS
330
1A
102
}
330
1A
100
AcDbXrecord
280
     1
270
     1
271
     1
  0
XRECORD
  5
14
102
{ACAD_REACTORS
330
12
102
}
330
12
100
AcDbXrecord
280
     1
270
     1
271
     1
  0
XRECORD
  5
13
102
{ACAD_REACTORS
330
12
102
}
330
12
100
AcDbXrecord
280
     1
270
     1
271
     1
  0
XRECORD
  5
17
102
{ACAD_REACTORS
330
12
102
}
330
12
100
AcDbXrecord
280
     1
270
     1
271
     1
  0
XRECORD
  5
16
102
{ACAD_REACTORS
330
12
102
}
330
12
100
AcDbXrecord
280
     1
270
     1
271
     1
  0
XRECORD
  5
18
102
{ACAD_REACTORS
330
12
102
}
330
12
100
AcDbXrecord
280
     1
270
     1
271
     1
  0
XRECORD
  5
15
102
{ACAD_REACTORS
330
12
102
}
330
12
100
AcDbXrecord
280
     1
270
     1
271
     1
  0
XRECORD
  5
24
102
{ACAD_REACTORS
330
22
102
}
330
22
100
AcDbXrecord
280
     1
270
     1
271
     1
  0
XRECORD
  5
23
102
{ACAD_REACTORS
330
22
102
}
330
22
100
AcDbXrecord
280
     1
270
     1
271
     1
  0
XRECORD
  5
27
102
{ACAD_REACTORS
330
22
102
}
330
22
100
AcDbXrecord
280
     1
270
     1
271
     1
  0
XRECORD
  5
26
102
{ACAD_REACTORS
330
22
102
}
330
22
100
AcDbXrecord
280
     1
270
     1
271
     1
  0
XRECORD
  5
28
102
{ACAD_REACTORS
330
22
102
}
330
22
100
AcDbXrecord
280
     1
270
     1
271
     1
  0
XRECORD
  5
25
102
{ACAD_REACTORS
330
22
102
}
330
22
100
AcDbXrecord
280
     1
270
     1
271
     1
  0
XRECORD
  5
6CD
102
{ACAD_REACTORS
330
6CC
102
}
330
6CC
100
AcDbXrecord
280
     1
102
ACAD_ROUNDTRIP_2012_MLEADER_STYLE
298
     1
  0
XRECORD
  5
6CE
102
{ACAD_REACTORS
330
113
102
}
330
113
100
AcDbXrecord
280
     1
102
DISPLAYNAME
  1
Imperial24
102
FLAGS
 90
        0
  0
CELLSTYLEMAP
  5
691
102
{ACAD_REACTORS
330
690
102
}
330
690
100
AcDbCellStyleMap
 90
        3
300
CELLSTYLE
  1
TABLEFORMAT_BEGIN
 90
        5
170
     1
 91
        0
 92
    32768
 62
   257
 93
        1
300
CONTENTFORMAT
  1
CONTENTFORMAT_BEGIN
 90
        0
 91
        0
 92
      512
 93
        0
300

 40
0.0
140
1.0
 94
        5
 62
     0
340
55
144
0.25
309
CONTENTFORMAT_END
171
     0
 94
        0
309
TABLEFORMAT_END
  1
CELLSTYLE_BEGIN
 90
        1
 91
        1
300
_TITLE
309
CELLSTYLE_END
300
CELLSTYLE
  1
TABLEFORMAT_BEGIN
 90
        5
170
     1
 91
        0
 92
        0
 62
   257
 93
        1
300
CONTENTFORMAT
  1
CONTENTFORMAT_BEGIN
 90
        0
 91
        0
 92
      512
 93
        0
300

 40
0.0
140
1.0
 94
        5
 62
     0
340
55
144
0.18
309
CONTENTFORMAT_END
171
     0
 94
        0
309
TABLEFORMAT_END
  1
CELLSTYLE_BEGIN
 90
        2
 91
        1
300
_HEADER
309
CELLSTYLE_END
300
CELLSTYLE
  1
TABLEFORMAT_BEGIN
 90
        5
170
     1
 91
        0
 92
        0
 62
   257
 93
        1
300
CONTENTFORMAT
  1
CONTENTFORMAT_BEGIN
 90
        0
 91
        0
 92
      512
 93
        0
300

 40
0.0
140
1.0
 94
        2
 62
     0
340
55
144
0.18
309
CONTENTFORMAT_END
171
     0
 94
        0
309
TABLEFORMAT_END
  1
CELLSTYLE_BEGIN
 90
        3
 91
        2
300
_DATA
309
CELLSTYLE_END
  0
XRECORD
  5
6A6
102
{ACAD_REACTORS
330
6A5
102
}
330
6A5
100
AcDbXrecord
280
     1
102
RTVSPost2010Prop28
280
     1
102
RTVSPost2010PropOp28
 70
     1
102
RTVSPost2010Prop29
280
     1
102
RTVSPost2010PropOp29
 70
     1
102
RTVSPost2010Prop30
280
     0
102
RTVSPost2010PropOp30
 70
     1
102
RTVSPost2010Prop31
280
     0
102
RTVSPost2010PropOp31
 70
     1
102
RTVSPost2010Prop32
280
     0
102
RTVSPost2010PropOp32
 70
     1
102
RTVSPost2010Prop33
280
     0
102
RTVSPost2010PropOp33
 70
     1
102
RTVSPost2010Prop34
280
     0
102
RTVSPost2010PropOp34
 70
     1
102
RTVSPost2010Prop35
280
     0
102
RTVSPost2010PropOp35
 70
     1
102
RTVSPost2010Prop36
280
     0
102
RTVSPost2010PropOp36
 70
     1
102
RTVSPost2010Prop37
 90
       50
102
RTVSPost2010PropOp37
 70
     1
102
RTVSPost2010Prop38
140
0.0
102
RTVSPost2010PropOp38
 70
     1
102
RTVSPost2010Prop39
140
1.0
102
RTVSPost2010PropOp39
 70
     1
102
RTVSPost2010Prop40
 90
        0
102
RTVSPost2010PropOp40
 70
     1
102
RTVSPost2010Prop41ColorIndex
 90
       18
102
RTVSPost2010Prop41ColorRGB
 90
        0
102
RTVSPost2010PropOp41
 70
     1
102
RTVSPost2010Prop42
 90
       50
102
RTVSPost2010PropOp42
 70
     1
102
RTVSPost2010Prop43
 90
        3
102
RTVSPost2010PropOp43
 70
     1
102
RTVSPost2010Prop44ColorIndex
 90
        5
102
RTVSPost2010Prop44ColorRGB
 90
      255
102
RTVSPost2010PropOp44
 70
     1
102
RTVSPost2010Prop45
280
     0
102
RTVSPost2010PropOp45
 70
     1
102
RTVSPost2010Prop46
 90
       50
102
RTVSPost2010PropOp46
 70
     1
102
RTVSPost2010Prop47
 90
       50
102
RTVSPost2010PropOp47
 70
     1
102
RTVSPost2010Prop48
 90
       50
102
RTVSPost2010PropOp48
 70
     1
102
RTVSPost2010Prop49
280
     0
102
RTVSPost2010PropOp49
 70
     1
102
RTVSPost2010Prop50
 90
       50
102
RTVSPost2010PropOp50
 70
     1
102
RTVSPost2010Prop51ColorIndex
 90
      256
102
RTVSPost2010Prop51ColorRGB
 90
-16777216
102
RTVSPost2010PropOp51
 70
     0
102
RTVSPost2010Prop52
140
1.0
102
RTVSPost2010PropOp52
 70
     0
102
RTVSPost2010Prop53
 90
        2
102
RTVSPost2010PropOp53
 70
     1
102
RTVSPost2010Prop54
  1
strokes_ogs.tif
102
RTVSPost2010PropOp54
 70
     1
102
RTVSPost2010Prop55
280
     0
102
RTVSPost2010PropOp55
 70
     1
102
RTVSPost2010Prop56
140
1.0
102
RTVSPost2010PropOp56
 70
     1
102
RTVSPost2010Prop57
140
1.0
102
RTVSPost2010PropOp57
 70
     1
102
RTVSPropertyOp0
 70
     1
102
RTVSPropertyOp1
 70
     1
102
RTVSPropertyOp2
 70
     1
102
RTVSPropertyOp3
 70
     1
102
RTVSPropertyOp4
 70
     1
102
RTVSPropertyOp5
 70
     1
102
RTVSPropertyOp6
 70
     1
102
RTVSPropertyOp7
 70
     1
102
RTVSPropertyOp8
 70
     1
102
RTVSPropertyOp9
 70
     1
102
RTVSPropertyOp10
 70
     1
102
RTVSPropertyOp11
 70
     1
102
RTVSPropertyOp12
 70
     1
102
RTVSPropertyOp13
 70
     1
102
RTVSPropertyOp14
 70
     1
102
RTVSPropertyOp15
 70
     1
102
RTVSPropertyOp16
 70
     1
102
RTVSPropertyOp17
 70
     1
102
RTVSPropertyOp18
 70
     1
102
RTVSPropertyOp19
 70
     1
102
RTVSPropertyOp20
 70
     1
102
RTVSPropertyOp21
 70
     1
102
RTVSPropertyOp22
 70
     1
102
RTVSPropertyOp23
 70
     1
102
RTVSPropertyOp24
 70
     1
102
RTVSPropertyOp25
 70
     1
102
RTVSPropertyOp26
 70
     1
102
RTVSPropertyOp27
 70
     1
102
RTVSPropertyOp28
 70
     1
102
RTVSPropertyOp29
 70
     1
102
RTVSPropertyOp30
 70
     1
102
RTVSPropertyOp31
 70
     1
102
RTVSPropertyOp32
 70
     1
102
RTVSPropertyOp33
 70
     1
102
RTVSPropertyOp34
 70
     1
102
RTVSPropertyOp35
 70
     1
102
RTVSPropertyOp36
 70
     1
102
RTVSPropertyOp37
 70
     1
102
RTVSPropertyOp38
 70
     1
102
RTVSPropertyOp39
 70
     1
102
RTVSPropertyOp40
 70
     1
102
RTVSPropertyOp41
 70
     1
102
RTVSPropertyOp42
 70
     1
102
RTVSPropertyOp43
 70
     1
102
RTVSPropertyOp44
 70
     1
102
RTVSPropertyOp45
 70
     1
102
RTVSPropertyOp46
 70
     1
102
RTVSPropertyOp47
 70
     1
102
RTVSPropertyOp48
 70
     1
102
RTVSPropertyOp49
 70
     1
102
RTVSPropertyOp50
 70
     1
102
RTVSPropertyOp51
 70
     0
102
RTVSPropertyOp52
 70
     0
102
RTVSPropertyOp53
 70
     1
102
RTVSPropertyOp54
 70
     1
102
RTVSPropertyOp55
 70
     1
102
RTVSPropertyOp56
 70
     1
102
RTVSPropertyOp57
 70
     1
102
RTVSPropertyOp58
 70
     1
102
RTVSPropertyOp59
 70
     1
102
RTVSPropertyOp60
 70
     1
102
RTVSPropertyOp61
 70
     1
102
RTVSPropertyOp62
 70
     1
  0
XRECORD
  5
6D1
102
{ACAD_REACTORS
330
6D0
102
}
330
6D0
100
AcDbXrecord
280
     1
102
RTVSPost2010Prop28
280
     0
102
RTVSPost2010PropOp28
 70
     1
102
RTVSPost2010Prop29
280
     1
102
RTVSPost2010PropOp29
 70
     1
102
RTVSPost2010Prop30
280
     1
102
RTVSPost2010PropOp30
 70
     1
102
RTVSPost2010Prop31
280
     0
102
RTVSPost2010PropOp31
 70
     1
102
RTVSPost2010Prop32
280
     0
102
RTVSPost2010PropOp32
 70
     1
102
RTVSPost2010Prop33
280
     0
102
RTVSPost2010PropOp33
 70
     1
102
RTVSPost2010Prop34
280
     0
102
RTVSPost2010PropOp34
 70
     1
102
RTVSPost2010Prop35
280
     0
102
RTVSPost2010PropOp35
 70
     1
102
RTVSPost2010Prop36
280
     0
102
RTVSPost2010PropOp36
 70
     1
102
RTVSPost2010Prop37
 90
       50
102
RTVSPost2010PropOp37
 70
     1
102
RTVSPost2010Prop38
140
0.0
102
RTVSPost2010PropOp38
 70
     1
102
RTVSPost2010Prop39
140
1.0
102
RTVSPost2010PropOp39
 70
     1
102
RTVSPost2010Prop40
 90
        0
102
RTVSPost2010PropOp40
 70
     1
102
RTVSPost2010Prop41ColorIndex
 90
       18
102
RTVSPost2010Prop41ColorRGB
 90
        0
102
RTVSPost2010PropOp41
 70
     1
102
RTVSPost2010Prop42
 90
       50
102
RTVSPost2010PropOp42
 70
     1
102
RTVSPost2010Prop43
 90
        3
102
RTVSPost2010PropOp43
 70
     1
102
RTVSPost2010Prop44ColorIndex
 90
        5
102
RTVSPost2010Prop44ColorRGB
 90
      255
102
RTVSPost2010PropOp44
 70
     1
102
RTVSPost2010Prop45
280
     0
102
RTVSPost2010PropOp45
 70
     1
102
RTVSPost2010Prop46
 90
       50
102
RTVSPost2010PropOp46
 70
     1
102
RTVSPost2010Prop47
 90
       50
102
RTVSPost2010PropOp47
 70
     1
102
RTVSPost2010Prop48
 90
       50
102
RTVSPost2010PropOp48
 70
     1
102
RTVSPost2010Prop49
280
     0
102
RTVSPost2010PropOp49
 70
     1
102
RTVSPost2010Prop50
 90
       50
102
RTVSPost2010PropOp50
 70
     1
102
RTVSPost2010Prop51ColorIndex
 90
      256
102
RTVSPost2010Prop51ColorRGB
 90
-16777216
102
RTVSPost2010PropOp51
 70
     0
102
RTVSPost2010Prop52
140
1.0
102
RTVSPost2010PropOp52
 70
     0
102
RTVSPost2010Prop53
 90
        2
102
RTVSPost2010PropOp53
 70
     1
102
RTVSPost2010Prop54
  1
strokes_ogs.tif
102
RTVSPost2010PropOp54
 70
     1
102
RTVSPost2010Prop55
280
     0
102
RTVSPost2010PropOp55
 70
     1
102
RTVSPost2010Prop56
140
1.0
102
RTVSPost2010PropOp56
 70
     1
102
RTVSPost2010Prop57
140
1.0
102
RTVSPost2010PropOp57
 70
     1
102
RTVSPropertyOp0
 70
     1
102
RTVSPropertyOp1
 70
     1
102
RTVSPropertyOp2
 70
     1
102
RTVSPropertyOp3
 70
     1
102
RTVSPropertyOp4
 70
     1
102
RTVSPropertyOp5
 70
     1
102
RTVSPropertyOp6
 70
     1
102
RTVSPropertyOp7
 70
     1
102
RTVSPropertyOp8
 70
     1
102
RTVSPropertyOp9
 70
     1
102
RTVSPropertyOp10
 70
     1
102
RTVSPropertyOp11
 70
     1
102
RTVSPropertyOp12
 70
     1
102
RTVSPropertyOp13
 70
     1
102
RTVSPropertyOp14
 70
     1
102
RTVSPropertyOp15
 70
     1
102
RTVSPropertyOp16
 70
     1
102
RTVSPropertyOp17
 70
     1
102
RTVSPropertyOp18
 70
     1
102
RTVSPropertyOp19
 70
     1
102
RTVSPropertyOp20
 70
     1
102
RTVSPropertyOp21
 70
     1
102
RTVSPropertyOp22
 70
     1
102
RTVSPropertyOp23
 70
     1
102
RTVSPropertyOp24
 70
     1
102
RTVSPropertyOp25
 70
     1
102
RTVSPropertyOp26
 70
     1
102
RTVSPropertyOp27
 70
     1
102
RTVSPropertyOp28
 70
     1
102
RTVSPropertyOp29
 70
     1
102
RTVSPropertyOp30
 70
     1
102
RTVSPropertyOp31
 70
     1
102
RTVSPropertyOp32
 70
     1
102
RTVSPropertyOp33
 70
     1
102
RTVSPropertyOp34
 70
     1
102
RTVSPropertyOp35
 70
     1
102
RTVSPropertyOp36
 70
     1
102
RTVSPropertyOp37
 70
     1
102
RTVSPropertyOp38
 70
     1
102
RTVSPropertyOp39
 70
     1
102
RTVSPropertyOp40
 70
     1
102
RTVSPropertyOp41
 70
     1
102
RTVSPropertyOp42
 70
     1
102
RTVSPropertyOp43
 70
     1
102
RTVSPropertyOp44
 70
     1
102
RTVSPropertyOp45
 70
     1
102
RTVSPropertyOp46
 70
     1
102
RTVSPropertyOp47
 70
     1
102
RTVSPropertyOp48
 70
     1
102
RTVSPropertyOp49
 70
     1
102
RTVSPropertyOp50
 70
     1
102
RTVSPropertyOp51
 70
     0
102
RTVSPropertyOp52
 70
     0
102
RTVSPropertyOp53
 70
     1
102
RTVSPropertyOp54
 70
     1
102
RTVSPropertyOp55
 70
     1
102
RTVSPropertyOp56
 70
     1
102
RTVSPropertyOp57
 70
     1
102
RTVSPropertyOp58
 70
     1
102
RTVSPropertyOp59
 70
     1
102
RTVSPropertyOp60
 70
     1
102
RTVSPropertyOp61
 70
     1
102
RTVSPropertyOp62
 70
     1
  0
XRECORD
  5
6A4
102
{ACAD_REACTORS
330
6A3
102
}
330
6A3
100
AcDbXrecord
280
     1
102
RTVSPost2010Prop28
280
     0
102
RTVSPost2010PropOp28
 70
     1
102
RTVSPost2010Prop29
280
     1
102
RTVSPost2010PropOp29
 70
     1
102
RTVSPost2010Prop30
280
     1
102
RTVSPost2010PropOp30
 70
     1
102
RTVSPost2010Prop31
280
     0
102
RTVSPost2010PropOp31
 70
     1
102
RTVSPost2010Prop32
280
     0
102
RTVSPost2010PropOp32
 70
     1
102
RTVSPost2010Prop33
280
     0
102
RTVSPost2010PropOp33
 70
     1
102
RTVSPost2010Prop34
280
     0
102
RTVSPost2010PropOp34
 70
     1
102
RTVSPost2010Prop35
280
     0
102
RTVSPost2010PropOp35
 70
     1
102
RTVSPost2010Prop36
280
     0
102
RTVSPost2010PropOp36
 70
     1
102
RTVSPost2010Prop37
 90
       50
102
RTVSPost2010PropOp37
 70
     1
102
RTVSPost2010Prop38
140
0.0
102
RTVSPost2010PropOp38
 70
     1
102
RTVSPost2010Prop39
140
1.0
102
RTVSPost2010PropOp39
 70
     1
102
RTVSPost2010Prop40
 90
        0
102
RTVSPost2010PropOp40
 70
     1
102
RTVSPost2010Prop41ColorIndex
 90
       18
102
RTVSPost2010Prop41ColorRGB
 90
        0
102
RTVSPost2010PropOp41
 70
     1
102
RTVSPost2010Prop42
 90
       50
102
RTVSPost2010PropOp42
 70
     1
102
RTVSPost2010Prop43
 90
        3
102
RTVSPost2010PropOp43
 70
     1
102
RTVSPost2010Prop44ColorIndex
 90
        5
102
RTVSPost2010Prop44ColorRGB
 90
      255
102
RTVSPost2010PropOp44
 70
     1
102
RTVSPost2010Prop45
280
     0
102
RTVSPost2010PropOp45
 70
     1
102
RTVSPost2010Prop46
 90
       50
102
RTVSPost2010PropOp46
 70
     1
102
RTVSPost2010Prop47
 90
       50
102
RTVSPost2010PropOp47
 70
     1
102
RTVSPost2010Prop48
 90
       50
102
RTVSPost2010PropOp48
 70
     1
102
RTVSPost2010Prop49
280
     0
102
RTVSPost2010PropOp49
 70
     1
102
RTVSPost2010Prop50
 90
       50
102
RTVSPost2010PropOp50
 70
     1
102
RTVSPost2010Prop51ColorIndex
 90
      256
102
RTVSPost2010Prop51ColorRGB
 90
-16777216
102
RTVSPost2010PropOp51
 70
     0
102
RTVSPost2010Prop52
140
1.0
102
RTVSPost2010PropOp52
 70
     0
102
RTVSPost2010Prop53
 90
        2
102
RTVSPost2010PropOp53
 70
     1
102
RTVSPost2010Prop54
  1
strokes_ogs.tif
102
RTVSPost2010PropOp54
 70
     1
102
RTVSPost2010Prop55
280
     0
102
RTVSPost2010PropOp55
 70
     1
102
RTVSPost2010Prop56
140
1.0
102
RTVSPost2010PropOp56
 70
     1
102
RTVSPost2010Prop57
140
1.0
102
RTVSPost2010PropOp57
 70
     1
102
RTVSPropertyOp0
 70
     1
102
RTVSPropertyOp1
 70
     1
102
RTVSPropertyOp2
 70
     1
102
RTVSPropertyOp3
 70
     1
102
RTVSPropertyOp4
 70
     1
102
RTVSPropertyOp5
 70
     1
102
RTVSPropertyOp6
 70
     1
102
RTVSPropertyOp7
 70
     1
102
RTVSPropertyOp8
 70
     1
102
RTVSPropertyOp9
 70
     1
102
RTVSPropertyOp10
 70
     1
102
RTVSPropertyOp11
 70
     1
102
RTVSPropertyOp12
 70
     1
102
RTVSPropertyOp13
 70
     1
102
RTVSPropertyOp14
 70
     1
102
RTVSPropertyOp15
 70
     1
102
RTVSPropertyOp16
 70
     1
102
RTVSPropertyOp17
 70
     1
102
RTVSPropertyOp18
 70
     1
102
RTVSPropertyOp19
 70
     1
102
RTVSPropertyOp20
 70
     1
102
RTVSPropertyOp21
 70
     1
102
RTVSPropertyOp22
 70
     1
102
RTVSPropertyOp23
 70
     1
102
RTVSPropertyOp24
 70
     1
102
RTVSPropertyOp25
 70
     1
102
RTVSPropertyOp26
 70
     1
102
RTVSPropertyOp27
 70
     1
102
RTVSPropertyOp28
 70
     1
102
RTVSPropertyOp29
 70
     1
102
RTVSPropertyOp30
 70
     1
102
RTVSPropertyOp31
 70
     1
102
RTVSPropertyOp32
 70
     1
102
RTVSPropertyOp33
 70
     1
102
RTVSPropertyOp34
 70
     1
102
RTVSPropertyOp35
 70
     1
102
RTVSPropertyOp36
 70
     1
102
RTVSPropertyOp37
 70
     1
102
RTVSPropertyOp38
 70
     1
102
RTVSPropertyOp39
 70
     1
102
RTVSPropertyOp40
 70
     1
102
RTVSPropertyOp41
 70
     1
102
RTVSPropertyOp42
 70
     1
102
RTVSPropertyOp43
 70
     1
102
RTVSPropertyOp44
 70
     1
102
RTVSPropertyOp45
 70
     1
102
RTVSPropertyOp46
 70
     1
102
RTVSPropertyOp47
 70
     1
102
RTVSPropertyOp48
 70
     1
102
RTVSPropertyOp49
 70
     1
102
RTVSPropertyOp50
 70
     1
102
RTVSPropertyOp51
 70
     0
102
RTVSPropertyOp52
 70
     0
102
RTVSPropertyOp53
 70
     1
102
RTVSPropertyOp54
 70
     1
102
RTVSPropertyOp55
 70
     1
102
RTVSPropertyOp56
 70
     1
102
RTVSPropertyOp57
 70
     1
102
RTVSPropertyOp58
 70
     1
102
RTVSPropertyOp59
 70
     1
102
RTVSPropertyOp60
 70
     1
102
RTVSPropertyOp61
 70
     1
102
RTVSPropertyOp62
 70
     1
  0
XRECORD
  5
6B2
102
{ACAD_REACTORS
330
6B1
102
}
330
6B1
100
AcDbXrecord
280
     1
102
RTVSPost2010Prop28
280
     0
102
RTVSPost2010PropOp28
 70
     1
102
RTVSPost2010Prop29
280
     1
102
RTVSPost2010PropOp29
 70
     1
102
RTVSPost2010Prop30
280
     1
102
RTVSPost2010PropOp30
 70
     1
102
RTVSPost2010Prop31
280
     0
102
RTVSPost2010PropOp31
 70
     1
102
RTVSPost2010Prop32
280
     0
102
RTVSPost2010PropOp32
 70
     1
102
RTVSPost2010Prop33
280
     0
102
RTVSPost2010PropOp33
 70
     1
102
RTVSPost2010Prop34
280
     0
102
RTVSPost2010PropOp34
 70
     1
102
RTVSPost2010Prop35
280
     0
102
RTVSPost2010PropOp35
 70
     1
102
RTVSPost2010Prop36
280
     0
102
RTVSPost2010PropOp36
 70
     1
102
RTVSPost2010Prop37
 90
       50
102
RTVSPost2010PropOp37
 70
     1
102
RTVSPost2010Prop38
140
0.0
102
RTVSPost2010PropOp38
 70
     1
102
RTVSPost2010Prop39
140
1.0
102
RTVSPost2010PropOp39
 70
     1
102
RTVSPost2010Prop40
 90
        0
102
RTVSPost2010PropOp40
 70
     1
102
RTVSPost2010Prop41ColorIndex
 90
       18
102
RTVSPost2010Prop41ColorRGB
 90
        0
102
RTVSPost2010PropOp41
 70
     1
102
RTVSPost2010Prop42
 90
       50
102
RTVSPost2010PropOp42
 70
     1
102
RTVSPost2010Prop43
 90
        3
102
RTVSPost2010PropOp43
 70
     1
102
RTVSPost2010Prop44ColorIndex
 90
        5
102
RTVSPost2010Prop44ColorRGB
 90
      255
102
RTVSPost2010PropOp44
 70
     1
102
RTVSPost2010Prop45
280
     0
102
RTVSPost2010PropOp45
 70
     1
102
RTVSPost2010Prop46
 90
       50
102
RTVSPost2010PropOp46
 70
     1
102
RTVSPost2010Prop47
 90
       50
102
RTVSPost2010PropOp47
 70
     1
102
RTVSPost2010Prop48
 90
       50
102
RTVSPost2010PropOp48
 70
     1
102
RTVSPost2010Prop49
280
     0
102
RTVSPost2010PropOp49
 70
     1
102
RTVSPost2010Prop50
 90
       50
102
RTVSPost2010PropOp50
 70
     1
102
RTVSPost2010Prop51ColorIndex
 90
      256
102
RTVSPost2010Prop51ColorRGB
 90
-16777216
102
RTVSPost2010PropOp51
 70
     0
102
RTVSPost2010Prop52
140
1.0
102
RTVSPost2010PropOp52
 70
     0
102
RTVSPost2010Prop53
 90
        2
102
RTVSPost2010PropOp53
 70
     1
102
RTVSPost2010Prop54
  1
strokes_ogs.tif
102
RTVSPost2010PropOp54
 70
     1
102
RTVSPost2010Prop55
280
     0
102
RTVSPost2010PropOp55
 70
     1
102
RTVSPost2010Prop56
140
1.0
102
RTVSPost2010PropOp56
 70
     1
102
RTVSPost2010Prop57
140
1.0
102
RTVSPost2010PropOp57
 70
     1
102
RTVSPropertyOp0
 70
     1
102
RTVSPropertyOp1
 70
     1
102
RTVSPropertyOp2
 70
     1
102
RTVSPropertyOp3
 70
     1
102
RTVSPropertyOp4
 70
     1
102
RTVSPropertyOp5
 70
     1
102
RTVSPropertyOp6
 70
     1
102
RTVSPropertyOp7
 70
     1
102
RTVSPropertyOp8
 70
     1
102
RTVSPropertyOp9
 70
     1
102
RTVSPropertyOp10
 70
     1
102
RTVSPropertyOp11
 70
     1
102
RTVSPropertyOp12
 70
     1
102
RTVSPropertyOp13
 70
     1
102
RTVSPropertyOp14
 70
     1
102
RTVSPropertyOp15
 70
     1
102
RTVSPropertyOp16
 70
     1
102
RTVSPropertyOp17
 70
     1
102
RTVSPropertyOp18
 70
     1
102
RTVSPropertyOp19
 70
     1
102
RTVSPropertyOp20
 70
     1
102
RTVSPropertyOp21
 70
     1
102
RTVSPropertyOp22
 70
     1
102
RTVSPropertyOp23
 70
     1
102
RTVSPropertyOp24
 70
     1
102
RTVSPropertyOp25
 70
     1
102
RTVSPropertyOp26
 70
     1
102
RTVSPropertyOp27
 70
     1
102
RTVSPropertyOp28
 70
     1
102
RTVSPropertyOp29
 70
     1
102
RTVSPropertyOp30
 70
     1
102
RTVSPropertyOp31
 70
     1
102
RTVSPropertyOp32
 70
     1
102
RTVSPropertyOp33
 70
     1
102
RTVSPropertyOp34
 70
     1
102
RTVSPropertyOp35
 70
     1
102
RTVSPropertyOp36
 70
     1
102
RTVSPropertyOp37
 70
     1
102
RTVSPropertyOp38
 70
     1
102
RTVSPropertyOp39
 70
     1
102
RTVSPropertyOp40
 70
     1
102
RTVSPropertyOp41
 70
     1
102
RTVSPropertyOp42
 70
     1
102
RTVSPropertyOp43
 70
     1
102
RTVSPropertyOp44
 70
     1
102
RTVSPropertyOp45
 70
     1
102
RTVSPropertyOp46
 70
     1
102
RTVSPropertyOp47
 70
     1
102
RTVSPropertyOp48
 70
     1
102
RTVSPropertyOp49
 70
     1
102
RTVSPropertyOp50
 70
     1
102
RTVSPropertyOp51
 70
     0
102
RTVSPropertyOp52
 70
     0
102
RTVSPropertyOp53
 70
     1
102
RTVSPropertyOp54
 70
     1
102
RTVSPropertyOp55
 70
     1
102
RTVSPropertyOp56
 70
     1
102
RTVSPropertyOp57
 70
     1
102
RTVSPropertyOp58
 70
     1
102
RTVSPropertyOp59
 70
     1
102
RTVSPropertyOp60
 70
     1
102
RTVSPropertyOp61
 70
     1
102
RTVSPropertyOp62
 70
     1
  0
XRECORD
  5
6BA
102
{ACAD_REACTORS
330
6B9
102
}
330
6B9
100
AcDbXrecord
280
     1
102
RTVSPost2010Prop28
280
     0
102
RTVSPost2010PropOp28
 70
     1
102
RTVSPost2010Prop29
280
     1
102
RTVSPost2010PropOp29
 70
     1
102
RTVSPost2010Prop30
280
     1
102
RTVSPost2010PropOp30
 70
     1
102
RTVSPost2010Prop31
280
     0
102
RTVSPost2010PropOp31
 70
     1
102
RTVSPost2010Prop32
280
     0
102
RTVSPost2010PropOp32
 70
     1
102
RTVSPost2010Prop33
280
     0
102
RTVSPost2010PropOp33
 70
     1
102
RTVSPost2010Prop34
280
     0
102
RTVSPost2010PropOp34
 70
     1
102
RTVSPost2010Prop35
280
     0
102
RTVSPost2010PropOp35
 70
     1
102
RTVSPost2010Prop36
280
     0
102
RTVSPost2010PropOp36
 70
     1
102
RTVSPost2010Prop37
 90
       50
102
RTVSPost2010PropOp37
 70
     1
102
RTVSPost2010Prop38
140
0.0
102
RTVSPost2010PropOp38
 70
     1
102
RTVSPost2010Prop39
140
1.0
102
RTVSPost2010PropOp39
 70
     1
102
RTVSPost2010Prop40
 90
        0
102
RTVSPost2010PropOp40
 70
     1
102
RTVSPost2010Prop41ColorIndex
 90
       18
102
RTVSPost2010Prop41ColorRGB
 90
        0
102
RTVSPost2010PropOp41
 70
     1
102
RTVSPost2010Prop42
 90
       50
102
RTVSPost2010PropOp42
 70
     1
102
RTVSPost2010Prop43
 90
        3
102
RTVSPost2010PropOp43
 70
     1
102
RTVSPost2010Prop44ColorIndex
 90
        5
102
RTVSPost2010Prop44ColorRGB
 90
      255
102
RTVSPost2010PropOp44
 70
     1
102
RTVSPost2010Prop45
280
     0
102
RTVSPost2010PropOp45
 70
     1
102
RTVSPost2010Prop46
 90
       50
102
RTVSPost2010PropOp46
 70
     1
102
RTVSPost2010Prop47
 90
       50
102
RTVSPost2010PropOp47
 70
     1
102
RTVSPost2010Prop48
 90
       50
102
RTVSPost2010PropOp48
 70
     1
102
RTVSPost2010Prop49
280
     0
102
RTVSPost2010PropOp49
 70
     1
102
RTVSPost2010Prop50
 90
       50
102
RTVSPost2010PropOp50
 70
     1
102
RTVSPost2010Prop51ColorIndex
 90
      256
102
RTVSPost2010Prop51ColorRGB
 90
-16777216
102
RTVSPost2010PropOp51
 70
     0
102
RTVSPost2010Prop52
140
1.0
102
RTVSPost2010PropOp52
 70
     0
102
RTVSPost2010Prop53
 90
        2
102
RTVSPost2010PropOp53
 70
     1
102
RTVSPost2010Prop54
  1
strokes_ogs.tif
102
RTVSPost2010PropOp54
 70
     1
102
RTVSPost2010Prop55
280
     0
102
RTVSPost2010PropOp55
 70
     1
102
RTVSPost2010Prop56
140
1.0
102
RTVSPost2010PropOp56
 70
     1
102
RTVSPost2010Prop57
140
1.0
102
RTVSPost2010PropOp57
 70
     1
102
RTVSPropertyOp0
 70
     1
102
RTVSPropertyOp1
 70
     1
102
RTVSPropertyOp2
 70
     1
102
RTVSPropertyOp3
 70
     1
102
RTVSPropertyOp4
 70
     1
102
RTVSPropertyOp5
 70
     1
102
RTVSPropertyOp6
 70
     1
102
RTVSPropertyOp7
 70
     1
102
RTVSPropertyOp8
 70
     1
102
RTVSPropertyOp9
 70
     1
102
RTVSPropertyOp10
 70
     1
102
RTVSPropertyOp11
 70
     1
102
RTVSPropertyOp12
 70
     1
102
RTVSPropertyOp13
 70
     1
102
RTVSPropertyOp14
 70
     1
102
RTVSPropertyOp15
 70
     1
102
RTVSPropertyOp16
 70
     1
102
RTVSPropertyOp17
 70
     1
102
RTVSPropertyOp18
 70
     1
102
RTVSPropertyOp19
 70
     1
102
RTVSPropertyOp20
 70
     1
102
RTVSPropertyOp21
 70
     1
102
RTVSPropertyOp22
 70
     1
102
RTVSPropertyOp23
 70
     1
102
RTVSPropertyOp24
 70
     1
102
RTVSPropertyOp25
 70
     1
102
RTVSPropertyOp26
 70
     1
102
RTVSPropertyOp27
 70
     1
102
RTVSPropertyOp28
 70
     1
102
RTVSPropertyOp29
 70
     1
102
RTVSPropertyOp30
 70
     1
102
RTVSPropertyOp31
 70
     1
102
RTVSPropertyOp32
 70
     1
102
RTVSPropertyOp33
 70
     1
102
RTVSPropertyOp34
 70
     1
102
RTVSPropertyOp35
 70
     1
102
RTVSPropertyOp36
 70
     1
102
RTVSPropertyOp37
 70
     1
102
RTVSPropertyOp38
 70
     1
102
RTVSPropertyOp39
 70
     1
102
RTVSPropertyOp40
 70
     1
102
RTVSPropertyOp41
 70
     1
102
RTVSPropertyOp42
 70
     1
102
RTVSPropertyOp43
 70
     1
102
RTVSPropertyOp44
 70
     1
102
RTVSPropertyOp45
 70
     1
102
RTVSPropertyOp46
 70
     1
102
RTVSPropertyOp47
 70
     1
102
RTVSPropertyOp48
 70
     1
102
RTVSPropertyOp49
 70
     1
102
RTVSPropertyOp50
 70
     1
102
RTVSPropertyOp51
 70
     0
102
RTVSPropertyOp52
 70
     0
102
RTVSPropertyOp53
 70
     1
102
RTVSPropertyOp54
 70
     1
102
RTVSPropertyOp55
 70
     1
102
RTVSPropertyOp56
 70
     1
102
RTVSPropertyOp57
 70
     1
102
RTVSPropertyOp58
 70
     1
102
RTVSPropertyOp59
 70
     1
102
RTVSPropertyOp60
 70
     1
102
RTVSPropertyOp61
 70
     1
102
RTVSPropertyOp62
 70
     1
  0
XRECORD
  5
6AC
102
{ACAD_REACTORS
330
6AB
102
}
330
6AB
100
AcDbXrecord
280
     1
102
RTVSPost2010Prop28
280
     0
102
RTVSPost2010PropOp28
 70
     1
102
RTVSPost2010Prop29
280
     1
102
RTVSPost2010PropOp29
 70
     1
102
RTVSPost2010Prop30
280
     1
102
RTVSPost2010PropOp30
 70
     1
102
RTVSPost2010Prop31
280
     0
102
RTVSPost2010PropOp31
 70
     1
102
RTVSPost2010Prop32
280
     0
102
RTVSPost2010PropOp32
 70
     1
102
RTVSPost2010Prop33
280
     0
102
RTVSPost2010PropOp33
 70
     1
102
RTVSPost2010Prop34
280
     0
102
RTVSPost2010PropOp34
 70
     1
102
RTVSPost2010Prop35
280
     0
102
RTVSPost2010PropOp35
 70
     1
102
RTVSPost2010Prop36
280
     0
102
RTVSPost2010PropOp36
 70
     1
102
RTVSPost2010Prop37
 90
       50
102
RTVSPost2010PropOp37
 70
     1
102
RTVSPost2010Prop38
140
0.0
102
RTVSPost2010PropOp38
 70
     1
102
RTVSPost2010Prop39
140
1.0
102
RTVSPost2010PropOp39
 70
     1
102
RTVSPost2010Prop40
 90
        0
102
RTVSPost2010PropOp40
 70
     1
102
RTVSPost2010Prop41ColorIndex
 90
       18
102
RTVSPost2010Prop41ColorRGB
 90
        0
102
RTVSPost2010PropOp41
 70
     1
102
RTVSPost2010Prop42
 90
       50
102
RTVSPost2010PropOp42
 70
     1
102
RTVSPost2010Prop43
 90
        3
102
RTVSPost2010PropOp43
 70
     1
102
RTVSPost2010Prop44ColorIndex
 90
        5
102
RTVSPost2010Prop44ColorRGB
 90
      255
102
RTVSPost2010PropOp44
 70
     1
102
RTVSPost2010Prop45
280
     0
102
RTVSPost2010PropOp45
 70
     1
102
RTVSPost2010Prop46
 90
       50
102
RTVSPost2010PropOp46
 70
     1
102
RTVSPost2010Prop47
 90
       50
102
RTVSPost2010PropOp47
 70
     1
102
RTVSPost2010Prop48
 90
       50
102
RTVSPost2010PropOp48
 70
     1
102
RTVSPost2010Prop49
280
     0
102
RTVSPost2010PropOp49
 70
     1
102
RTVSPost2010Prop50
 90
       50
102
RTVSPost2010PropOp50
 70
     1
102
RTVSPost2010Prop51ColorIndex
 90
      256
102
RTVSPost2010Prop51ColorRGB
 90
-16777216
102
RTVSPost2010PropOp51
 70
     0
102
RTVSPost2010Prop52
140
1.0
102
RTVSPost2010PropOp52
 70
     0
102
RTVSPost2010Prop53
 90
        2
102
RTVSPost2010PropOp53
 70
     1
102
RTVSPost2010Prop54
  1
strokes_ogs.tif
102
RTVSPost2010PropOp54
 70
     1
102
RTVSPost2010Prop55
280
     0
102
RTVSPost2010PropOp55
 70
     1
102
RTVSPost2010Prop56
140
1.0
102
RTVSPost2010PropOp56
 70
     1
102
RTVSPost2010Prop57
140
1.0
102
RTVSPost2010PropOp57
 70
     1
102
RTVSPropertyOp0
 70
     1
102
RTVSPropertyOp1
 70
     1
102
RTVSPropertyOp2
 70
     1
102
RTVSPropertyOp3
 70
     1
102
RTVSPropertyOp4
 70
     1
102
RTVSPropertyOp5
 70
     1
102
RTVSPropertyOp6
 70
     1
102
RTVSPropertyOp7
 70
     1
102
RTVSPropertyOp8
 70
     1
102
RTVSPropertyOp9
 70
     1
102
RTVSPropertyOp10
 70
     1
102
RTVSPropertyOp11
 70
     1
102
RTVSPropertyOp12
 70
     1
102
RTVSPropertyOp13
 70
     1
102
RTVSPropertyOp14
 70
     1
102
RTVSPropertyOp15
 70
     1
102
RTVSPropertyOp16
 70
     1
102
RTVSPropertyOp17
 70
     1
102
RTVSPropertyOp18
 70
     1
102
RTVSPropertyOp19
 70
     1
102
RTVSPropertyOp20
 70
     1
102
RTVSPropertyOp21
 70
     1
102
RTVSPropertyOp22
 70
     1
102
RTVSPropertyOp23
 70
     1
102
RTVSPropertyOp24
 70
     1
102
RTVSPropertyOp25
 70
     1
102
RTVSPropertyOp26
 70
     1
102
RTVSPropertyOp27
 70
     1
102
RTVSPropertyOp28
 70
     1
102
RTVSPropertyOp29
 70
     1
102
RTVSPropertyOp30
 70
     1
102
RTVSPropertyOp31
 70
     1
102
RTVSPropertyOp32
 70
     1
102
RTVSPropertyOp33
 70
     1
102
RTVSPropertyOp34
 70
     1
102
RTVSPropertyOp35
 70
     1
102
RTVSPropertyOp36
 70
     1
102
RTVSPropertyOp37
 70
     1
102
RTVSPropertyOp38
 70
     1
102
RTVSPropertyOp39
 70
     1
102
RTVSPropertyOp40
 70
     1
102
RTVSPropertyOp41
 70
     1
102
RTVSPropertyOp42
 70
     1
102
RTVSPropertyOp43
 70
     1
102
RTVSPropertyOp44
 70
     1
102
RTVSPropertyOp45
 70
     1
102
RTVSPropertyOp46
 70
     1
102
RTVSPropertyOp47
 70
     1
102
RTVSPropertyOp48
 70
     1
102
RTVSPropertyOp49
 70
     1
102
RTVSPropertyOp50
 70
     1
102
RTVSPropertyOp51
 70
     0
102
RTVSPropertyOp52
 70
     0
102
RTVSPropertyOp53
 70
     1
102
RTVSPropertyOp54
 70
     1
102
RTVSPropertyOp55
 70
     1
102
RTVSPropertyOp56
 70
     1
102
RTVSPropertyOp57
 70
     1
102
RTVSPropertyOp58
 70
     1
102
RTVSPropertyOp59
 70
     1
102
RTVSPropertyOp60
 70
     1
102
RTVSPropertyOp61
 70
     1
102
RTVSPropertyOp62
 70
     1
  0
XRECORD
  5
6B0
102
{ACAD_REACTORS
330
6AF
102
}
330
6AF
100
AcDbXrecord
280
     1
102
RTVSPost2010Prop28
280
     0
102
RTVSPost2010PropOp28
 70
     1
102
RTVSPost2010Prop29
280
     1
102
RTVSPost2010PropOp29
 70
     1
102
RTVSPost2010Prop30
280
     1
102
RTVSPost2010PropOp30
 70
     1
102
RTVSPost2010Prop31
280
     0
102
RTVSPost2010PropOp31
 70
     1
102
RTVSPost2010Prop32
280
     0
102
RTVSPost2010PropOp32
 70
     1
102
RTVSPost2010Prop33
280
     0
102
RTVSPost2010PropOp33
 70
     1
102
RTVSPost2010Prop34
280
     0
102
RTVSPost2010PropOp34
 70
     1
102
RTVSPost2010Prop35
280
     0
102
RTVSPost2010PropOp35
 70
     1
102
RTVSPost2010Prop36
280
     0
102
RTVSPost2010PropOp36
 70
     1
102
RTVSPost2010Prop37
 90
       50
102
RTVSPost2010PropOp37
 70
     1
102
RTVSPost2010Prop38
140
0.0
102
RTVSPost2010PropOp38
 70
     1
102
RTVSPost2010Prop39
140
1.0
102
RTVSPost2010PropOp39
 70
     1
102
RTVSPost2010Prop40
 90
        0
102
RTVSPost2010PropOp40
 70
     1
102
RTVSPost2010Prop41ColorIndex
 90
       18
102
RTVSPost2010Prop41ColorRGB
 90
        0
102
RTVSPost2010PropOp41
 70
     1
102
RTVSPost2010Prop42
 90
       50
102
RTVSPost2010PropOp42
 70
     1
102
RTVSPost2010Prop43
 90
        3
102
RTVSPost2010PropOp43
 70
     1
102
RTVSPost2010Prop44ColorIndex
 90
        5
102
RTVSPost2010Prop44ColorRGB
 90
      255
102
RTVSPost2010PropOp44
 70
     1
102
RTVSPost2010Prop45
280
     0
102
RTVSPost2010PropOp45
 70
     1
102
RTVSPost2010Prop46
 90
       50
102
RTVSPost2010PropOp46
 70
     1
102
RTVSPost2010Prop47
 90
       50
102
RTVSPost2010PropOp47
 70
     1
102
RTVSPost2010Prop48
 90
       50
102
RTVSPost2010PropOp48
 70
     1
102
RTVSPost2010Prop49
280
     0
102
RTVSPost2010PropOp49
 70
     1
102
RTVSPost2010Prop50
 90
       50
102
RTVSPost2010PropOp50
 70
     1
102
RTVSPost2010Prop51ColorIndex
 90
      256
102
RTVSPost2010Prop51ColorRGB
 90
-16777216
102
RTVSPost2010PropOp51
 70
     0
102
RTVSPost2010Prop52
140
1.0
102
RTVSPost2010PropOp52
 70
     0
102
RTVSPost2010Prop53
 90
        2
102
RTVSPost2010PropOp53
 70
     1
102
RTVSPost2010Prop54
  1
strokes_ogs.tif
102
RTVSPost2010PropOp54
 70
     1
102
RTVSPost2010Prop55
280
     0
102
RTVSPost2010PropOp55
 70
     1
102
RTVSPost2010Prop56
140
1.0
102
RTVSPost2010PropOp56
 70
     1
102
RTVSPost2010Prop57
140
1.0
102
RTVSPost2010PropOp57
 70
     1
102
RTVSPropertyOp0
 70
     1
102
RTVSPropertyOp1
 70
     1
102
RTVSPropertyOp2
 70
     1
102
RTVSPropertyOp3
 70
     1
102
RTVSPropertyOp4
 70
     1
102
RTVSPropertyOp5
 70
     1
102
RTVSPropertyOp6
 70
     1
102
RTVSPropertyOp7
 70
     1
102
RTVSPropertyOp8
 70
     1
102
RTVSPropertyOp9
 70
     1
102
RTVSPropertyOp10
 70
     1
102
RTVSPropertyOp11
 70
     1
102
RTVSPropertyOp12
 70
     1
102
RTVSPropertyOp13
 70
     1
102
RTVSPropertyOp14
 70
     1
102
RTVSPropertyOp15
 70
     1
102
RTVSPropertyOp16
 70
     1
102
RTVSPropertyOp17
 70
     1
102
RTVSPropertyOp18
 70
     1
102
RTVSPropertyOp19
 70
     1
102
RTVSPropertyOp20
 70
     1
102
RTVSPropertyOp21
 70
     1
102
RTVSPropertyOp22
 70
     1
102
RTVSPropertyOp23
 70
     1
102
RTVSPropertyOp24
 70
     1
102
RTVSPropertyOp25
 70
     1
102
RTVSPropertyOp26
 70
     1
102
RTVSPropertyOp27
 70
     1
102
RTVSPropertyOp28
 70
     1
102
RTVSPropertyOp29
 70
     1
102
RTVSPropertyOp30
 70
     1
102
RTVSPropertyOp31
 70
     1
102
RTVSPropertyOp32
 70
     1
102
RTVSPropertyOp33
 70
     1
102
RTVSPropertyOp34
 70
     1
102
RTVSPropertyOp35
 70
     1
102
RTVSPropertyOp36
 70
     1
102
RTVSPropertyOp37
 70
     1
102
RTVSPropertyOp38
 70
     1
102
RTVSPropertyOp39
 70
     1
102
RTVSPropertyOp40
 70
     1
102
RTVSPropertyOp41
 70
     1
102
RTVSPropertyOp42
 70
     1
102
RTVSPropertyOp43
 70
     1
102
RTVSPropertyOp44
 70
     1
102
RTVSPropertyOp45
 70
     1
102
RTVSPropertyOp46
 70
     1
102
RTVSPropertyOp47
 70
     1
102
RTVSPropertyOp48
 70
     1
102
RTVSPropertyOp49
 70
     1
102
RTVSPropertyOp50
 70
     1
102
RTVSPropertyOp51
 70
     0
102
RTVSPropertyOp52
 70
     0
102
RTVSPropertyOp53
 70
     1
102
RTVSPropertyOp54
 70
     1
102
RTVSPropertyOp55
 70
     1
102
RTVSPropertyOp56
 70
     1
102
RTVSPropertyOp57
 70
     1
102
RTVSPropertyOp58
 70
     1
102
RTVSPropertyOp59
 70
     1
102
RTVSPropertyOp60
 70
     1
102
RTVSPropertyOp61
 70
     1
102
RTVSPropertyOp62
 70
     1
  0
XRECORD
  5
6CA
102
{ACAD_REACTORS
330
6C9
102
}
330
6C9
100
AcDbXrecord
280
     1
102
RTVSPost2010Prop28
280
     0
102
RTVSPost2010PropOp28
 70
     0
102
RTVSPost2010Prop29
280
     1
102
RTVSPost2010PropOp29
 70
     0
102
RTVSPost2010Prop30
280
     1
102
RTVSPost2010PropOp30
 70
     0
102
RTVSPost2010Prop31
280
     0
102
RTVSPost2010PropOp31
 70
     0
102
RTVSPost2010Prop32
280
     0
102
RTVSPost2010PropOp32
 70
     0
102
RTVSPost2010Prop33
280
     0
102
RTVSPost2010PropOp33
 70
     0
102
RTVSPost2010Prop34
280
     0
102
RTVSPost2010PropOp34
 70
     0
102
RTVSPost2010Prop35
280
     0
102
RTVSPost2010PropOp35
 70
     0
102
RTVSPost2010Prop36
280
     0
102
RTVSPost2010PropOp36
 70
     0
102
RTVSPost2010Prop37
 90
       50
102
RTVSPost2010PropOp37
 70
     0
102
RTVSPost2010Prop38
140
0.0
102
RTVSPost2010PropOp38
 70
     0
102
RTVSPost2010Prop39
140
1.0
102
RTVSPost2010PropOp39
 70
     0
102
RTVSPost2010Prop40
 90
        0
102
RTVSPost2010PropOp40
 70
     0
102
RTVSPost2010Prop41ColorIndex
 90
       18
102
RTVSPost2010Prop41ColorRGB
 90
        0
102
RTVSPost2010PropOp41
 70
     0
102
RTVSPost2010Prop42
 90
       50
102
RTVSPost2010PropOp42
 70
     0
102
RTVSPost2010Prop43
 90
        3
102
RTVSPost2010PropOp43
 70
     0
102
RTVSPost2010Prop44ColorIndex
 90
        5
102
RTVSPost2010Prop44ColorRGB
 90
      255
102
RTVSPost2010PropOp44
 70
     0
102
RTVSPost2010Prop45
280
     0
102
RTVSPost2010PropOp45
 70
     0
102
RTVSPost2010Prop46
 90
       50
102
RTVSPost2010PropOp46
 70
     0
102
RTVSPost2010Prop47
 90
       50
102
RTVSPost2010PropOp47
 70
     0
102
RTVSPost2010Prop48
 90
       50
102
RTVSPost2010PropOp48
 70
     0
102
RTVSPost2010Prop49
280
     0
102
RTVSPost2010PropOp49
 70
     0
102
RTVSPost2010Prop50
 90
       50
102
RTVSPost2010PropOp50
 70
     0
102
RTVSPost2010Prop51ColorIndex
 90
      256
102
RTVSPost2010Prop51ColorRGB
 90
-16777216
102
RTVSPost2010PropOp51
 70
     0
102
RTVSPost2010Prop52
140
1.0
102
RTVSPost2010PropOp52
 70
     0
102
RTVSPost2010Prop53
 90
        2
102
RTVSPost2010PropOp53
 70
     0
102
RTVSPost2010Prop54
  1
strokes_ogs.tif
102
RTVSPost2010PropOp54
 70
     0
102
RTVSPost2010Prop55
280
     0
102
RTVSPost2010PropOp55
 70
     0
102
RTVSPost2010Prop56
140
1.0
102
RTVSPost2010PropOp56
 70
     0
102
RTVSPost2010Prop57
140
1.0
102
RTVSPost2010PropOp57
 70
     0
102
RTVSPropertyOp0
 70
     0
102
RTVSPropertyOp1
 70
     0
102
RTVSPropertyOp2
 70
     0
102
RTVSPropertyOp3
 70
     0
102
RTVSPropertyOp4
 70
     0
102
RTVSPropertyOp5
 70
     0
102
RTVSPropertyOp6
 70
     0
102
RTVSPropertyOp7
 70
     0
102
RTVSPropertyOp8
 70
     0
102
RTVSPropertyOp9
 70
     0
102
RTVSPropertyOp10
 70
     0
102
RTVSPropertyOp11
 70
     0
102
RTVSPropertyOp12
 70
     0
102
RTVSPropertyOp13
 70
     0
102
RTVSPropertyOp14
 70
     2
102
RTVSPropertyOp15
 70
     0
102
RTVSPropertyOp16
 70
     0
102
RTVSPropertyOp17
 70
     0
102
RTVSPropertyOp18
 70
     0
102
RTVSPropertyOp19
 70
     0
102
RTVSPropertyOp20
 70
     0
102
RTVSPropertyOp21
 70
     0
102
RTVSPropertyOp22
 70
     0
102
RTVSPropertyOp23
 70
     0
102
RTVSPropertyOp24
 70
     0
102
RTVSPropertyOp25
 70
     0
102
RTVSPropertyOp26
 70
     0
102
RTVSPropertyOp27
 70
     0
102
RTVSPropertyOp28
 70
     0
102
RTVSPropertyOp29
 70
     0
102
RTVSPropertyOp30
 70
     0
102
RTVSPropertyOp31
 70
     0
102
RTVSPropertyOp32
 70
     0
102
RTVSPropertyOp33
 70
     0
102
RTVSPropertyOp34
 70
     0
102
RTVSPropertyOp35
 70
     0
102
RTVSPropertyOp36
 70
     0
102
RTVSPropertyOp37
 70
     0
102
RTVSPropertyOp38
 70
     0
102
RTVSPropertyOp39
 70
     0
102
RTVSPropertyOp40
 70
     0
102
RTVSPropertyOp41
 70
     0
102
RTVSPropertyOp42
 70
     0
102
RTVSPropertyOp43
 70
     0
102
RTVSPropertyOp44
 70
     0
102
RTVSPropertyOp45
 70
     0
102
RTVSPropertyOp46
 70
     0
102
RTVSPropertyOp47
 70
     0
102
RTVSPropertyOp48
 70
     0
102
RTVSPropertyOp49
 70
     0
102
RTVSPropertyOp50
 70
     0
102
RTVSPropertyOp51
 70
     0
102
RTVSPropertyOp52
 70
     0
102
RTVSPropertyOp53
 70
     0
102
RTVSPropertyOp54
 70
     0
102
RTVSPropertyOp55
 70
     0
102
RTVSPropertyOp56
 70
     0
102
RTVSPropertyOp57
 70
     0
102
RTVSPropertyOp58
 70
     1
102
RTVSPropertyOp59
 70
     1
102
RTVSPropertyOp60
 70
     1
102
RTVSPropertyOp61
 70
     1
102
RTVSPropertyOp62
 70
     1
  0
XRECORD
  5
6B8
102
{ACAD_REACTORS
330
6B7
102
}
330
6B7
100
AcDbXrecord
280
     1
102
RTVSPost2010Prop28
280
     0
102
RTVSPost2010PropOp28
 70
     1
102
RTVSPost2010Prop29
280
     1
102
RTVSPost2010PropOp29
 70
     1
102
RTVSPost2010Prop30
280
     1
102
RTVSPost2010PropOp30
 70
     1
102
RTVSPost2010Prop31
280
     0
102
RTVSPost2010PropOp31
 70
     1
102
RTVSPost2010Prop32
280
     0
102
RTVSPost2010PropOp32
 70
     1
102
RTVSPost2010Prop33
280
     0
102
RTVSPost2010PropOp33
 70
     1
102
RTVSPost2010Prop34
280
     0
102
RTVSPost2010PropOp34
 70
     1
102
RTVSPost2010Prop35
280
     0
102
RTVSPost2010PropOp35
 70
     1
102
RTVSPost2010Prop36
280
     0
102
RTVSPost2010PropOp36
 70
     1
102
RTVSPost2010Prop37
 90
       50
102
RTVSPost2010PropOp37
 70
     1
102
RTVSPost2010Prop38
140
0.0
102
RTVSPost2010PropOp38
 70
     1
102
RTVSPost2010Prop39
140
1.0
102
RTVSPost2010PropOp39
 70
     1
102
RTVSPost2010Prop40
 90
        0
102
RTVSPost2010PropOp40
 70
     1
102
RTVSPost2010Prop41ColorIndex
 90
       18
102
RTVSPost2010Prop41ColorRGB
 90
        0
102
RTVSPost2010PropOp41
 70
     1
102
RTVSPost2010Prop42
 90
       50
102
RTVSPost2010PropOp42
 70
     1
102
RTVSPost2010Prop43
 90
        3
102
RTVSPost2010PropOp43
 70
     1
102
RTVSPost2010Prop44ColorIndex
 90
        5
102
RTVSPost2010Prop44ColorRGB
 90
      255
102
RTVSPost2010PropOp44
 70
     1
102
RTVSPost2010Prop45
280
     0
102
RTVSPost2010PropOp45
 70
     1
102
RTVSPost2010Prop46
 90
       50
102
RTVSPost2010PropOp46
 70
     1
102
RTVSPost2010Prop47
 90
       50
102
RTVSPost2010PropOp47
 70
     1
102
RTVSPost2010Prop48
 90
       50
102
RTVSPost2010PropOp48
 70
     1
102
RTVSPost2010Prop49
280
     0
102
RTVSPost2010PropOp49
 70
     1
102
RTVSPost2010Prop50
 90
       50
102
RTVSPost2010PropOp50
 70
     1
102
RTVSPost2010Prop51ColorIndex
 90
      256
102
RTVSPost2010Prop51ColorRGB
 90
-16777216
102
RTVSPost2010PropOp51
 70
     0
102
RTVSPost2010Prop52
140
1.0
102
RTVSPost2010PropOp52
 70
     0
102
RTVSPost2010Prop53
 90
        2
102
RTVSPost2010PropOp53
 70
     1
102
RTVSPost2010Prop54
  1
strokes_ogs.tif
102
RTVSPost2010PropOp54
 70
     1
102
RTVSPost2010Prop55
280
     0
102
RTVSPost2010PropOp55
 70
     1
102
RTVSPost2010Prop56
140
1.0
102
RTVSPost2010PropOp56
 70
     1
102
RTVSPost2010Prop57
140
1.0
102
RTVSPost2010PropOp57
 70
     1
102
RTVSPropertyOp0
 70
     1
102
RTVSPropertyOp1
 70
     1
102
RTVSPropertyOp2
 70
     1
102
RTVSPropertyOp3
 70
     1
102
RTVSPropertyOp4
 70
     1
102
RTVSPropertyOp5
 70
     1
102
RTVSPropertyOp6
 70
     1
102
RTVSPropertyOp7
 70
     1
102
RTVSPropertyOp8
 70
     1
102
RTVSPropertyOp9
 70
     1
102
RTVSPropertyOp10
 70
     1
102
RTVSPropertyOp11
 70
     1
102
RTVSPropertyOp12
 70
     1
102
RTVSPropertyOp13
 70
     1
102
RTVSPropertyOp14
 70
     1
102
RTVSPropertyOp15
 70
     1
102
RTVSPropertyOp16
 70
     1
102
RTVSPropertyOp17
 70
     1
102
RTVSPropertyOp18
 70
     1
102
RTVSPropertyOp19
 70
     1
102
RTVSPropertyOp20
 70
     1
102
RTVSPropertyOp21
 70
     1
102
RTVSPropertyOp22
 70
     1
102
RTVSPropertyOp23
 70
     1
102
RTVSPropertyOp24
 70
     1
102
RTVSPropertyOp25
 70
     1
102
RTVSPropertyOp26
 70
     1
102
RTVSPropertyOp27
 70
     1
102
RTVSPropertyOp28
 70
     1
102
RTVSPropertyOp29
 70
     1
102
RTVSPropertyOp30
 70
     1
102
RTVSPropertyOp31
 70
     1
102
RTVSPropertyOp32
 70
     1
102
RTVSPropertyOp33
 70
     1
102
RTVSPropertyOp34
 70
     1
102
RTVSPropertyOp35
 70
     1
102
RTVSPropertyOp36
 70
     1
102
RTVSPropertyOp37
 70
     1
102
RTVSPropertyOp38
 70
     1
102
RTVSPropertyOp39
 70
     1
102
RTVSPropertyOp40
 70
     1
102
RTVSPropertyOp41
 70
     1
102
RTVSPropertyOp42
 70
     1
102
RTVSPropertyOp43
 70
     1
102
RTVSPropertyOp44
 70
     1
102
RTVSPropertyOp45
 70
     1
102
RTVSPropertyOp46
 70
     1
102
RTVSPropertyOp47
 70
     1
102
RTVSPropertyOp48
 70
     1
102
RTVSPropertyOp49
 70
     1
102
RTVSPropertyOp50
 70
     1
102
RTVSPropertyOp51
 70
     0
102
RTVSPropertyOp52
 70
     0
102
RTVSPropertyOp53
 70
     1
102
RTVSPropertyOp54
 70
     1
102
RTVSPropertyOp55
 70
     1
102
RTVSPropertyOp56
 70
     1
102
RTVSPropertyOp57
 70
     1
102
RTVSPropertyOp58
 70
     1
102
RTVSPropertyOp59
 70
     1
102
RTVSPropertyOp60
 70
     1
102
RTVSPropertyOp61
 70
     1
102
RTVSPropertyOp62
 70
     1
  0
XRECORD
  5
69C
102
{ACAD_REACTORS
330
69B
102
}
330
69B
100
AcDbXrecord
280
     1
102
RTVSPost2010Prop28
280
     0
102
RTVSPost2010PropOp28
 70
     1
102
RTVSPost2010Prop29
280
     1
102
RTVSPost2010PropOp29
 70
     1
102
RTVSPost2010Prop30
280
     1
102
RTVSPost2010PropOp30
 70
     1
102
RTVSPost2010Prop31
280
     0
102
RTVSPost2010PropOp31
 70
     1
102
RTVSPost2010Prop32
280
     0
102
RTVSPost2010PropOp32
 70
     1
102
RTVSPost2010Prop33
280
     0
102
RTVSPost2010PropOp33
 70
     1
102
RTVSPost2010Prop34
280
     0
102
RTVSPost2010PropOp34
 70
     1
102
RTVSPost2010Prop35
280
     0
102
RTVSPost2010PropOp35
 70
     1
102
RTVSPost2010Prop36
280
     0
102
RTVSPost2010PropOp36
 70
     1
102
RTVSPost2010Prop37
 90
       50
102
RTVSPost2010PropOp37
 70
     1
102
RTVSPost2010Prop38
140
0.0
102
RTVSPost2010PropOp38
 70
     1
102
RTVSPost2010Prop39
140
1.0
102
RTVSPost2010PropOp39
 70
     1
102
RTVSPost2010Prop40
 90
        0
102
RTVSPost2010PropOp40
 70
     1
102
RTVSPost2010Prop41ColorIndex
 90
       18
102
RTVSPost2010Prop41ColorRGB
 90
        0
102
RTVSPost2010PropOp41
 70
     1
102
RTVSPost2010Prop42
 90
       50
102
RTVSPost2010PropOp42
 70
     1
102
RTVSPost2010Prop43
 90
        3
102
RTVSPost2010PropOp43
 70
     1
102
RTVSPost2010Prop44ColorIndex
 90
        5
102
RTVSPost2010Prop44ColorRGB
 90
      255
102
RTVSPost2010PropOp44
 70
     1
102
RTVSPost2010Prop45
280
     0
102
RTVSPost2010PropOp45
 70
     1
102
RTVSPost2010Prop46
 90
       50
102
RTVSPost2010PropOp46
 70
     1
102
RTVSPost2010Prop47
 90
       50
102
RTVSPost2010PropOp47
 70
     1
102
RTVSPost2010Prop48
 90
       50
102
RTVSPost2010PropOp48
 70
     1
102
RTVSPost2010Prop49
280
     0
102
RTVSPost2010PropOp49
 70
     1
102
RTVSPost2010Prop50
 90
       50
102
RTVSPost2010PropOp50
 70
     1
102
RTVSPost2010Prop51ColorIndex
 90
      256
102
RTVSPost2010Prop51ColorRGB
 90
-16777216
102
RTVSPost2010PropOp51
 70
     0
102
RTVSPost2010Prop52
140
1.0
102
RTVSPost2010PropOp52
 70
     0
102
RTVSPost2010Prop53
 90
        2
102
RTVSPost2010PropOp53
 70
     1
102
RTVSPost2010Prop54
  1
strokes_ogs.tif
102
RTVSPost2010PropOp54
 70
     1
102
RTVSPost2010Prop55
280
     0
102
RTVSPost2010PropOp55
 70
     1
102
RTVSPost2010Prop56
140
1.0
102
RTVSPost2010PropOp56
 70
     1
102
RTVSPost2010Prop57
140
1.0
102
RTVSPost2010PropOp57
 70
     1
102
RTVSPropertyOp0
 70
     1
102
RTVSPropertyOp1
 70
     1
102
RTVSPropertyOp2
 70
     1
102
RTVSPropertyOp3
 70
     1
102
RTVSPropertyOp4
 70
     1
102
RTVSPropertyOp5
 70
     1
102
RTVSPropertyOp6
 70
     1
102
RTVSPropertyOp7
 70
     1
102
RTVSPropertyOp8
 70
     1
102
RTVSPropertyOp9
 70
     1
102
RTVSPropertyOp10
 70
     1
102
RTVSPropertyOp11
 70
     1
102
RTVSPropertyOp12
 70
     1
102
RTVSPropertyOp13
 70
     1
102
RTVSPropertyOp14
 70
     1
102
RTVSPropertyOp15
 70
     1
102
RTVSPropertyOp16
 70
     1
102
RTVSPropertyOp17
 70
     1
102
RTVSPropertyOp18
 70
     1
102
RTVSPropertyOp19
 70
     1
102
RTVSPropertyOp20
 70
     1
102
RTVSPropertyOp21
 70
     1
102
RTVSPropertyOp22
 70
     1
102
RTVSPropertyOp23
 70
     1
102
RTVSPropertyOp24
 70
     1
102
RTVSPropertyOp25
 70
     1
102
RTVSPropertyOp26
 70
     1
102
RTVSPropertyOp27
 70
     1
102
RTVSPropertyOp28
 70
     1
102
RTVSPropertyOp29
 70
     1
102
RTVSPropertyOp30
 70
     1
102
RTVSPropertyOp31
 70
     1
102
RTVSPropertyOp32
 70
     1
102
RTVSPropertyOp33
 70
     1
102
RTVSPropertyOp34
 70
     1
102
RTVSPropertyOp35
 70
     1
102
RTVSPropertyOp36
 70
     1
102
RTVSPropertyOp37
 70
     1
102
RTVSPropertyOp38
 70
     1
102
RTVSPropertyOp39
 70
     1
102
RTVSPropertyOp40
 70
     1
102
RTVSPropertyOp41
 70
     1
102
RTVSPropertyOp42
 70
     1
102
RTVSPropertyOp43
 70
     1
102
RTVSPropertyOp44
 70
     1
102
RTVSPropertyOp45
 70
     1
102
RTVSPropertyOp46
 70
     1
102
RTVSPropertyOp47
 70
     1
102
RTVSPropertyOp48
 70
     1
102
RTVSPropertyOp49
 70
     1
102
RTVSPropertyOp50
 70
     1
102
RTVSPropertyOp51
 70
     0
102
RTVSPropertyOp52
 70
     0
102
RTVSPropertyOp53
 70
     1
102
RTVSPropertyOp54
 70
     1
102
RTVSPropertyOp55
 70
     1
102
RTVSPropertyOp56
 70
     1
102
RTVSPropertyOp57
 70
     1
102
RTVSPropertyOp58
 70
     1
102
RTVSPropertyOp59
 70
     1
102
RTVSPropertyOp60
 70
     1
102
RTVSPropertyOp61
 70
     1
102
RTVSPropertyOp62
 70
     1
  0
XRECORD
  5
69E
102
{ACAD_REACTORS
330
69D
102
}
330
69D
100
AcDbXrecord
280
     1
102
RTVSPost2010Prop28
280
     0
102
RTVSPost2010PropOp28
 70
     1
102
RTVSPost2010Prop29
280
     1
102
RTVSPost2010PropOp29
 70
     1
102
RTVSPost2010Prop30
280
     1
102
RTVSPost2010PropOp30
 70
     1
102
RTVSPost2010Prop31
280
     0
102
RTVSPost2010PropOp31
 70
     1
102
RTVSPost2010Prop32
280
     0
102
RTVSPost2010PropOp32
 70
     1
102
RTVSPost2010Prop33
280
     0
102
RTVSPost2010PropOp33
 70
     1
102
RTVSPost2010Prop34
280
     0
102
RTVSPost2010PropOp34
 70
     1
102
RTVSPost2010Prop35
280
     0
102
RTVSPost2010PropOp35
 70
     1
102
RTVSPost2010Prop36
280
     0
102
RTVSPost2010PropOp36
 70
     1
102
RTVSPost2010Prop37
 90
       50
102
RTVSPost2010PropOp37
 70
     1
102
RTVSPost2010Prop38
140
0.0
102
RTVSPost2010PropOp38
 70
     1
102
RTVSPost2010Prop39
140
1.0
102
RTVSPost2010PropOp39
 70
     1
102
RTVSPost2010Prop40
 90
        0
102
RTVSPost2010PropOp40
 70
     1
102
RTVSPost2010Prop41ColorIndex
 90
       18
102
RTVSPost2010Prop41ColorRGB
 90
        0
102
RTVSPost2010PropOp41
 70
     1
102
RTVSPost2010Prop42
 90
       50
102
RTVSPost2010PropOp42
 70
     1
102
RTVSPost2010Prop43
 90
        3
102
RTVSPost2010PropOp43
 70
     1
102
RTVSPost2010Prop44ColorIndex
 90
        5
102
RTVSPost2010Prop44ColorRGB
 90
      255
102
RTVSPost2010PropOp44
 70
     1
102
RTVSPost2010Prop45
280
     0
102
RTVSPost2010PropOp45
 70
     1
102
RTVSPost2010Prop46
 90
       50
102
RTVSPost2010PropOp46
 70
     1
102
RTVSPost2010Prop47
 90
       50
102
RTVSPost2010PropOp47
 70
     1
102
RTVSPost2010Prop48
 90
       50
102
RTVSPost2010PropOp48
 70
     1
102
RTVSPost2010Prop49
280
     0
102
RTVSPost2010PropOp49
 70
     1
102
RTVSPost2010Prop50
 90
       50
102
RTVSPost2010PropOp50
 70
     1
102
RTVSPost2010Prop51ColorIndex
 90
      256
102
RTVSPost2010Prop51ColorRGB
 90
-16777216
102
RTVSPost2010PropOp51
 70
     0
102
RTVSPost2010Prop52
140
1.0
102
RTVSPost2010PropOp52
 70
     0
102
RTVSPost2010Prop53
 90
        2
102
RTVSPost2010PropOp53
 70
     1
102
RTVSPost2010Prop54
  1
strokes_ogs.tif
102
RTVSPost2010PropOp54
 70
     1
102
RTVSPost2010Prop55
280
     0
102
RTVSPost2010PropOp55
 70
     1
102
RTVSPost2010Prop56
140
1.0
102
RTVSPost2010PropOp56
 70
     1
102
RTVSPost2010Prop57
140
1.0
102
RTVSPost2010PropOp57
 70
     1
102
RTVSPropertyOp0
 70
     1
102
RTVSPropertyOp1
 70
     1
102
RTVSPropertyOp2
 70
     1
102
RTVSPropertyOp3
 70
     1
102
RTVSPropertyOp4
 70
     1
102
RTVSPropertyOp5
 70
     1
102
RTVSPropertyOp6
 70
     1
102
RTVSPropertyOp7
 70
     1
102
RTVSPropertyOp8
 70
     1
102
RTVSPropertyOp9
 70
     1
102
RTVSPropertyOp10
 70
     1
102
RTVSPropertyOp11
 70
     1
102
RTVSPropertyOp12
 70
     1
102
RTVSPropertyOp13
 70
     1
102
RTVSPropertyOp14
 70
     1
102
RTVSPropertyOp15
 70
     1
102
RTVSPropertyOp16
 70
     1
102
RTVSPropertyOp17
 70
     1
102
RTVSPropertyOp18
 70
     1
102
RTVSPropertyOp19
 70
     1
102
RTVSPropertyOp20
 70
     1
102
RTVSPropertyOp21
 70
     1
102
RTVSPropertyOp22
 70
     1
102
RTVSPropertyOp23
 70
     1
102
RTVSPropertyOp24
 70
     1
102
RTVSPropertyOp25
 70
     1
102
RTVSPropertyOp26
 70
     1
102
RTVSPropertyOp27
 70
     1
102
RTVSPropertyOp28
 70
     1
102
RTVSPropertyOp29
 70
     1
102
RTVSPropertyOp30
 70
     1
102
RTVSPropertyOp31
 70
     1
102
RTVSPropertyOp32
 70
     1
102
RTVSPropertyOp33
 70
     1
102
RTVSPropertyOp34
 70
     1
102
RTVSPropertyOp35
 70
     1
102
RTVSPropertyOp36
 70
     1
102
RTVSPropertyOp37
 70
     1
102
RTVSPropertyOp38
 70
     1
102
RTVSPropertyOp39
 70
     1
102
RTVSPropertyOp40
 70
     1
102
RTVSPropertyOp41
 70
     1
102
RTVSPropertyOp42
 70
     1
102
RTVSPropertyOp43
 70
     1
102
RTVSPropertyOp44
 70
     1
102
RTVSPropertyOp45
 70
     1
102
RTVSPropertyOp46
 70
     1
102
RTVSPropertyOp47
 70
     1
102
RTVSPropertyOp48
 70
     1
102
RTVSPropertyOp49
 70
     1
102
RTVSPropertyOp50
 70
     1
102
RTVSPropertyOp51
 70
     0
102
RTVSPropertyOp52
 70
     0
102
RTVSPropertyOp53
 70
     1
102
RTVSPropertyOp54
 70
     1
102
RTVSPropertyOp55
 70
     1
102
RTVSPropertyOp56
 70
     1
102
RTVSPropertyOp57
 70
     1
102
RTVSPropertyOp58
 70
     1
102
RTVSPropertyOp59
 70
     1
102
RTVSPropertyOp60
 70
     1
102
RTVSPropertyOp61
 70
     1
102
RTVSPropertyOp62
 70
     1
  0
XRECORD
  5
6A0
102
{ACAD_REACTORS
330
69F
102
}
330
69F
100
AcDbXrecord
280
     1
102
RTVSPost2010Prop28
280
     0
102
RTVSPost2010PropOp28
 70
     1
102
RTVSPost2010Prop29
280
     1
102
RTVSPost2010PropOp29
 70
     1
102
RTVSPost2010Prop30
280
     1
102
RTVSPost2010PropOp30
 70
     1
102
RTVSPost2010Prop31
280
     0
102
RTVSPost2010PropOp31
 70
     1
102
RTVSPost2010Prop32
280
     0
102
RTVSPost2010PropOp32
 70
     1
102
RTVSPost2010Prop33
280
     0
102
RTVSPost2010PropOp33
 70
     1
102
RTVSPost2010Prop34
280
     0
102
RTVSPost2010PropOp34
 70
     1
102
RTVSPost2010Prop35
280
     0
102
RTVSPost2010PropOp35
 70
     1
102
RTVSPost2010Prop36
280
     0
102
RTVSPost2010PropOp36
 70
     1
102
RTVSPost2010Prop37
 90
       50
102
RTVSPost2010PropOp37
 70
     1
102
RTVSPost2010Prop38
140
0.0
102
RTVSPost2010PropOp38
 70
     1
102
RTVSPost2010Prop39
140
1.0
102
RTVSPost2010PropOp39
 70
     1
102
RTVSPost2010Prop40
 90
        0
102
RTVSPost2010PropOp40
 70
     1
102
RTVSPost2010Prop41ColorIndex
 90
       18
102
RTVSPost2010Prop41ColorRGB
 90
        0
102
RTVSPost2010PropOp41
 70
     1
102
RTVSPost2010Prop42
 90
       50
102
RTVSPost2010PropOp42
 70
     1
102
RTVSPost2010Prop43
 90
        3
102
RTVSPost2010PropOp43
 70
     1
102
RTVSPost2010Prop44ColorIndex
 90
        5
102
RTVSPost2010Prop44ColorRGB
 90
      255
102
RTVSPost2010PropOp44
 70
     1
102
RTVSPost2010Prop45
280
     0
102
RTVSPost2010PropOp45
 70
     1
102
RTVSPost2010Prop46
 90
       50
102
RTVSPost2010PropOp46
 70
     1
102
RTVSPost2010Prop47
 90
       50
102
RTVSPost2010PropOp47
 70
     1
102
RTVSPost2010Prop48
 90
       50
102
RTVSPost2010PropOp48
 70
     1
102
RTVSPost2010Prop49
280
     0
102
RTVSPost2010PropOp49
 70
     1
102
RTVSPost2010Prop50
 90
       50
102
RTVSPost2010PropOp50
 70
     1
102
RTVSPost2010Prop51ColorIndex
 90
      256
102
RTVSPost2010Prop51ColorRGB
 90
-16777216
102
RTVSPost2010PropOp51
 70
     0
102
RTVSPost2010Prop52
140
1.0
102
RTVSPost2010PropOp52
 70
     0
102
RTVSPost2010Prop53
 90
        2
102
RTVSPost2010PropOp53
 70
     1
102
RTVSPost2010Prop54
  1
strokes_ogs.tif
102
RTVSPost2010PropOp54
 70
     1
102
RTVSPost2010Prop55
280
     0
102
RTVSPost2010PropOp55
 70
     1
102
RTVSPost2010Prop56
140
1.0
102
RTVSPost2010PropOp56
 70
     1
102
RTVSPost2010Prop57
140
1.0
102
RTVSPost2010PropOp57
 70
     1
102
RTVSPropertyOp0
 70
     1
102
RTVSPropertyOp1
 70
     1
102
RTVSPropertyOp2
 70
     1
102
RTVSPropertyOp3
 70
     1
102
RTVSPropertyOp4
 70
     1
102
RTVSPropertyOp5
 70
     1
102
RTVSPropertyOp6
 70
     1
102
RTVSPropertyOp7
 70
     1
102
RTVSPropertyOp8
 70
     1
102
RTVSPropertyOp9
 70
     1
102
RTVSPropertyOp10
 70
     1
102
RTVSPropertyOp11
 70
     1
102
RTVSPropertyOp12
 70
     1
102
RTVSPropertyOp13
 70
     1
102
RTVSPropertyOp14
 70
     1
102
RTVSPropertyOp15
 70
     1
102
RTVSPropertyOp16
 70
     1
102
RTVSPropertyOp17
 70
     1
102
RTVSPropertyOp18
 70
     1
102
RTVSPropertyOp19
 70
     1
102
RTVSPropertyOp20
 70
     1
102
RTVSPropertyOp21
 70
     1
102
RTVSPropertyOp22
 70
     1
102
RTVSPropertyOp23
 70
     1
102
RTVSPropertyOp24
 70
     1
102
RTVSPropertyOp25
 70
     1
102
RTVSPropertyOp26
 70
     1
102
RTVSPropertyOp27
 70
     1
102
RTVSPropertyOp28
 70
     1
102
RTVSPropertyOp29
 70
     1
102
RTVSPropertyOp30
 70
     1
102
RTVSPropertyOp31
 70
     1
102
RTVSPropertyOp32
 70
     1
102
RTVSPropertyOp33
 70
     1
102
RTVSPropertyOp34
 70
     1
102
RTVSPropertyOp35
 70
     1
102
RTVSPropertyOp36
 70
     1
102
RTVSPropertyOp37
 70
     1
102
RTVSPropertyOp38
 70
     1
102
RTVSPropertyOp39
 70
     1
102
RTVSPropertyOp40
 70
     1
102
RTVSPropertyOp41
 70
     1
102
RTVSPropertyOp42
 70
     1
102
RTVSPropertyOp43
 70
     1
102
RTVSPropertyOp44
 70
     1
102
RTVSPropertyOp45
 70
     1
102
RTVSPropertyOp46
 70
     1
102
RTVSPropertyOp47
 70
     1
102
RTVSPropertyOp48
 70
     1
102
RTVSPropertyOp49
 70
     1
102
RTVSPropertyOp50
 70
     1
102
RTVSPropertyOp51
 70
     0
102
RTVSPropertyOp52
 70
     0
102
RTVSPropertyOp53
 70
     1
102
RTVSPropertyOp54
 70
     1
102
RTVSPropertyOp55
 70
     1
102
RTVSPropertyOp56
 70
     1
102
RTVSPropertyOp57
 70
     1
102
RTVSPropertyOp58
 70
     1
102
RTVSPropertyOp59
 70
     1
102
RTVSPropertyOp60
 70
     1
102
RTVSPropertyOp61
 70
     1
102
RTVSPropertyOp62
 70
     1
  0
XRECORD
  5
6A2
102
{ACAD_REACTORS
330
6A1
102
}
330
6A1
100
AcDbXrecord
280
     1
102
RTVSPost2010Prop28
280
     0
102
RTVSPost2010PropOp28
 70
     1
102
RTVSPost2010Prop29
280
     1
102
RTVSPost2010PropOp29
 70
     1
102
RTVSPost2010Prop30
280
     1
102
RTVSPost2010PropOp30
 70
     1
102
RTVSPost2010Prop31
280
     0
102
RTVSPost2010PropOp31
 70
     1
102
RTVSPost2010Prop32
280
     0
102
RTVSPost2010PropOp32
 70
     1
102
RTVSPost2010Prop33
280
     0
102
RTVSPost2010PropOp33
 70
     1
102
RTVSPost2010Prop34
280
     0
102
RTVSPost2010PropOp34
 70
     1
102
RTVSPost2010Prop35
280
     0
102
RTVSPost2010PropOp35
 70
     1
102
RTVSPost2010Prop36
280
     0
102
RTVSPost2010PropOp36
 70
     1
102
RTVSPost2010Prop37
 90
       50
102
RTVSPost2010PropOp37
 70
     1
102
RTVSPost2010Prop38
140
0.0
102
RTVSPost2010PropOp38
 70
     1
102
RTVSPost2010Prop39
140
1.0
102
RTVSPost2010PropOp39
 70
     1
102
RTVSPost2010Prop40
 90
        0
102
RTVSPost2010PropOp40
 70
     1
102
RTVSPost2010Prop41ColorIndex
 90
       18
102
RTVSPost2010Prop41ColorRGB
 90
        0
102
RTVSPost2010PropOp41
 70
     1
102
RTVSPost2010Prop42
 90
       50
102
RTVSPost2010PropOp42
 70
     1
102
RTVSPost2010Prop43
 90
        3
102
RTVSPost2010PropOp43
 70
     1
102
RTVSPost2010Prop44ColorIndex
 90
        5
102
RTVSPost2010Prop44ColorRGB
 90
      255
102
RTVSPost2010PropOp44
 70
     1
102
RTVSPost2010Prop45
280
     0
102
RTVSPost2010PropOp45
 70
     1
102
RTVSPost2010Prop46
 90
       50
102
RTVSPost2010PropOp46
 70
     1
102
RTVSPost2010Prop47
 90
       50
102
RTVSPost2010PropOp47
 70
     1
102
RTVSPost2010Prop48
 90
       50
102
RTVSPost2010PropOp48
 70
     1
102
RTVSPost2010Prop49
280
     0
102
RTVSPost2010PropOp49
 70
     1
102
RTVSPost2010Prop50
 90
       50
102
RTVSPost2010PropOp50
 70
     1
102
RTVSPost2010Prop51ColorIndex
 90
      256
102
RTVSPost2010Prop51ColorRGB
 90
-16777216
102
RTVSPost2010PropOp51
 70
     0
102
RTVSPost2010Prop52
140
1.0
102
RTVSPost2010PropOp52
 70
     0
102
RTVSPost2010Prop53
 90
        2
102
RTVSPost2010PropOp53
 70
     1
102
RTVSPost2010Prop54
  1
strokes_ogs.tif
102
RTVSPost2010PropOp54
 70
     1
102
RTVSPost2010Prop55
280
     0
102
RTVSPost2010PropOp55
 70
     1
102
RTVSPost2010Prop56
140
1.0
102
RTVSPost2010PropOp56
 70
     1
102
RTVSPost2010Prop57
140
1.0
102
RTVSPost2010PropOp57
 70
     1
102
RTVSPropertyOp0
 70
     1
102
RTVSPropertyOp1
 70
     1
102
RTVSPropertyOp2
 70
     1
102
RTVSPropertyOp3
 70
     1
102
RTVSPropertyOp4
 70
     1
102
RTVSPropertyOp5
 70
     1
102
RTVSPropertyOp6
 70
     1
102
RTVSPropertyOp7
 70
     1
102
RTVSPropertyOp8
 70
     1
102
RTVSPropertyOp9
 70
     1
102
RTVSPropertyOp10
 70
     1
102
RTVSPropertyOp11
 70
     1
102
RTVSPropertyOp12
 70
     1
102
RTVSPropertyOp13
 70
     1
102
RTVSPropertyOp14
 70
     1
102
RTVSPropertyOp15
 70
     1
102
RTVSPropertyOp16
 70
     1
102
RTVSPropertyOp17
 70
     1
102
RTVSPropertyOp18
 70
     1
102
RTVSPropertyOp19
 70
     1
102
RTVSPropertyOp20
 70
     1
102
RTVSPropertyOp21
 70
     1
102
RTVSPropertyOp22
 70
     1
102
RTVSPropertyOp23
 70
     1
102
RTVSPropertyOp24
 70
     1
102
RTVSPropertyOp25
 70
     1
102
RTVSPropertyOp26
 70
     1
102
RTVSPropertyOp27
 70
     1
102
RTVSPropertyOp28
 70
     1
102
RTVSPropertyOp29
 70
     1
102
RTVSPropertyOp30
 70
     1
102
RTVSPropertyOp31
 70
     1
102
RTVSPropertyOp32
 70
     1
102
RTVSPropertyOp33
 70
     1
102
RTVSPropertyOp34
 70
     1
102
RTVSPropertyOp35
 70
     1
102
RTVSPropertyOp36
 70
     1
102
RTVSPropertyOp37
 70
     1
102
RTVSPropertyOp38
 70
     1
102
RTVSPropertyOp39
 70
     1
102
RTVSPropertyOp40
 70
     1
102
RTVSPropertyOp41
 70
     1
102
RTVSPropertyOp42
 70
     1
102
RTVSPropertyOp43
 70
     1
102
RTVSPropertyOp44
 70
     1
102
RTVSPropertyOp45
 70
     1
102
RTVSPropertyOp46
 70
     1
102
RTVSPropertyOp47
 70
     1
102
RTVSPropertyOp48
 70
     1
102
RTVSPropertyOp49
 70
     1
102
RTVSPropertyOp50
 70
     1
102
RTVSPropertyOp51
 70
     0
102
RTVSPropertyOp52
 70
     0
102
RTVSPropertyOp53
 70
     1
102
RTVSPropertyOp54
 70
     1
102
RTVSPropertyOp55
 70
     1
102
RTVSPropertyOp56
 70
     1
102
RTVSPropertyOp57
 70
     1
102
RTVSPropertyOp58
 70
     1
102
RTVSPropertyOp59
 70
     1
102
RTVSPropertyOp60
 70
     1
102
RTVSPropertyOp61
 70
     1
102
RTVSPropertyOp62
 70
     1
  0
XRECORD
  5
6AA
102
{ACAD_REACTORS
330
6A9
102
}
330
6A9
100
AcDbXrecord
280
     1
102
RTVSPost2010Prop28
280
     0
102
RTVSPost2010PropOp28
 70
     1
102
RTVSPost2010Prop29
280
     1
102
RTVSPost2010PropOp29
 70
     1
102
RTVSPost2010Prop30
280
     1
102
RTVSPost2010PropOp30
 70
     1
102
RTVSPost2010Prop31
280
     0
102
RTVSPost2010PropOp31
 70
     1
102
RTVSPost2010Prop32
280
     0
102
RTVSPost2010PropOp32
 70
     1
102
RTVSPost2010Prop33
280
     0
102
RTVSPost2010PropOp33
 70
     1
102
RTVSPost2010Prop34
280
     0
102
RTVSPost2010PropOp34
 70
     1
102
RTVSPost2010Prop35
280
     0
102
RTVSPost2010PropOp35
 70
     1
102
RTVSPost2010Prop36
280
     0
102
RTVSPost2010PropOp36
 70
     1
102
RTVSPost2010Prop37
 90
       50
102
RTVSPost2010PropOp37
 70
     1
102
RTVSPost2010Prop38
140
0.0
102
RTVSPost2010PropOp38
 70
     1
102
RTVSPost2010Prop39
140
1.0
102
RTVSPost2010PropOp39
 70
     1
102
RTVSPost2010Prop40
 90
        0
102
RTVSPost2010PropOp40
 70
     1
102
RTVSPost2010Prop41ColorIndex
 90
       18
102
RTVSPost2010Prop41ColorRGB
 90
        0
102
RTVSPost2010PropOp41
 70
     1
102
RTVSPost2010Prop42
 90
       50
102
RTVSPost2010PropOp42
 70
     1
102
RTVSPost2010Prop43
 90
        3
102
RTVSPost2010PropOp43
 70
     1
102
RTVSPost2010Prop44ColorIndex
 90
        5
102
RTVSPost2010Prop44ColorRGB
 90
      255
102
RTVSPost2010PropOp44
 70
     1
102
RTVSPost2010Prop45
280
     0
102
RTVSPost2010PropOp45
 70
     1
102
RTVSPost2010Prop46
 90
       50
102
RTVSPost2010PropOp46
 70
     1
102
RTVSPost2010Prop47
 90
       50
102
RTVSPost2010PropOp47
 70
     1
102
RTVSPost2010Prop48
 90
       50
102
RTVSPost2010PropOp48
 70
     1
102
RTVSPost2010Prop49
280
     0
102
RTVSPost2010PropOp49
 70
     1
102
RTVSPost2010Prop50
 90
       50
102
RTVSPost2010PropOp50
 70
     1
102
RTVSPost2010Prop51ColorIndex
 90
      256
102
RTVSPost2010Prop51ColorRGB
 90
-16777216
102
RTVSPost2010PropOp51
 70
     0
102
RTVSPost2010Prop52
140
1.0
102
RTVSPost2010PropOp52
 70
     0
102
RTVSPost2010Prop53
 90
        2
102
RTVSPost2010PropOp53
 70
     1
102
RTVSPost2010Prop54
  1
strokes_ogs.tif
102
RTVSPost2010PropOp54
 70
     1
102
RTVSPost2010Prop55
280
     0
102
RTVSPost2010PropOp55
 70
     1
102
RTVSPost2010Prop56
140
1.0
102
RTVSPost2010PropOp56
 70
     1
102
RTVSPost2010Prop57
140
1.0
102
RTVSPost2010PropOp57
 70
     1
102
RTVSPropertyOp0
 70
     1
102
RTVSPropertyOp1
 70
     1
102
RTVSPropertyOp2
 70
     1
102
RTVSPropertyOp3
 70
     1
102
RTVSPropertyOp4
 70
     1
102
RTVSPropertyOp5
 70
     1
102
RTVSPropertyOp6
 70
     1
102
RTVSPropertyOp7
 70
     1
102
RTVSPropertyOp8
 70
     1
102
RTVSPropertyOp9
 70
     1
102
RTVSPropertyOp10
 70
     1
102
RTVSPropertyOp11
 70
     1
102
RTVSPropertyOp12
 70
     1
102
RTVSPropertyOp13
 70
     1
102
RTVSPropertyOp14
 70
     1
102
RTVSPropertyOp15
 70
     1
102
RTVSPropertyOp16
 70
     1
102
RTVSPropertyOp17
 70
     1
102
RTVSPropertyOp18
 70
     1
102
RTVSPropertyOp19
 70
     1
102
RTVSPropertyOp20
 70
     1
102
RTVSPropertyOp21
 70
     1
102
RTVSPropertyOp22
 70
     1
102
RTVSPropertyOp23
 70
     1
102
RTVSPropertyOp24
 70
     1
102
RTVSPropertyOp25
 70
     1
102
RTVSPropertyOp26
 70
     1
102
RTVSPropertyOp27
 70
     1
102
RTVSPropertyOp28
 70
     1
102
RTVSPropertyOp29
 70
     1
102
RTVSPropertyOp30
 70
     1
102
RTVSPropertyOp31
 70
     1
102
RTVSPropertyOp32
 70
     1
102
RTVSPropertyOp33
 70
     1
102
RTVSPropertyOp34
 70
     1
102
RTVSPropertyOp35
 70
     1
102
RTVSPropertyOp36
 70
     1
102
RTVSPropertyOp37
 70
     1
102
RTVSPropertyOp38
 70
     1
102
RTVSPropertyOp39
 70
     1
102
RTVSPropertyOp40
 70
     1
102
RTVSPropertyOp41
 70
     1
102
RTVSPropertyOp42
 70
     1
102
RTVSPropertyOp43
 70
     1
102
RTVSPropertyOp44
 70
     1
102
RTVSPropertyOp45
 70
     1
102
RTVSPropertyOp46
 70
     1
102
RTVSPropertyOp47
 70
     1
102
RTVSPropertyOp48
 70
     1
102
RTVSPropertyOp49
 70
     1
102
RTVSPropertyOp50
 70
     1
102
RTVSPropertyOp51
 70
     0
102
RTVSPropertyOp52
 70
     0
102
RTVSPropertyOp53
 70
     1
102
RTVSPropertyOp54
 70
     1
102
RTVSPropertyOp55
 70
     1
102
RTVSPropertyOp56
 70
     1
102
RTVSPropertyOp57
 70
     1
102
RTVSPropertyOp58
 70
     1
102
RTVSPropertyOp59
 70
     1
102
RTVSPropertyOp60
 70
     1
102
RTVSPropertyOp61
 70
     1
102
RTVSPropertyOp62
 70
     1
  0
XRECORD
  5
6C6
102
{ACAD_REACTORS
330
6C5
102
}
330
6C5
100
AcDbXrecord
280
     1
102
RTVSPost2010Prop28
280
     0
102
RTVSPost2010PropOp28
 70
     0
102
RTVSPost2010Prop29
280
     1
102
RTVSPost2010PropOp29
 70
     0
102
RTVSPost2010Prop30
280
     1
102
RTVSPost2010PropOp30
 70
     0
102
RTVSPost2010Prop31
280
     0
102
RTVSPost2010PropOp31
 70
     0
102
RTVSPost2010Prop32
280
     0
102
RTVSPost2010PropOp32
 70
     0
102
RTVSPost2010Prop33
280
     0
102
RTVSPost2010PropOp33
 70
     0
102
RTVSPost2010Prop34
280
     0
102
RTVSPost2010PropOp34
 70
     0
102
RTVSPost2010Prop35
280
     0
102
RTVSPost2010PropOp35
 70
     0
102
RTVSPost2010Prop36
280
     0
102
RTVSPost2010PropOp36
 70
     0
102
RTVSPost2010Prop37
 90
       50
102
RTVSPost2010PropOp37
 70
     0
102
RTVSPost2010Prop38
140
0.0
102
RTVSPost2010PropOp38
 70
     0
102
RTVSPost2010Prop39
140
1.0
102
RTVSPost2010PropOp39
 70
     0
102
RTVSPost2010Prop40
 90
        0
102
RTVSPost2010PropOp40
 70
     0
102
RTVSPost2010Prop41ColorIndex
 90
       18
102
RTVSPost2010Prop41ColorRGB
 90
        0
102
RTVSPost2010PropOp41
 70
     0
102
RTVSPost2010Prop42
 90
       50
102
RTVSPost2010PropOp42
 70
     0
102
RTVSPost2010Prop43
 90
        3
102
RTVSPost2010PropOp43
 70
     0
102
RTVSPost2010Prop44ColorIndex
 90
        5
102
RTVSPost2010Prop44ColorRGB
 90
      255
102
RTVSPost2010PropOp44
 70
     0
102
RTVSPost2010Prop45
280
     0
102
RTVSPost2010PropOp45
 70
     0
102
RTVSPost2010Prop46
 90
       50
102
RTVSPost2010PropOp46
 70
     0
102
RTVSPost2010Prop47
 90
       50
102
RTVSPost2010PropOp47
 70
     0
102
RTVSPost2010Prop48
 90
       50
102
RTVSPost2010PropOp48
 70
     0
102
RTVSPost2010Prop49
280
     0
102
RTVSPost2010PropOp49
 70
     0
102
RTVSPost2010Prop50
 90
       50
102
RTVSPost2010PropOp50
 70
     0
102
RTVSPost2010Prop51ColorIndex
 90
      256
102
RTVSPost2010Prop51ColorRGB
 90
-16777216
102
RTVSPost2010PropOp51
 70
     0
102
RTVSPost2010Prop52
140
1.0
102
RTVSPost2010PropOp52
 70
     0
102
RTVSPost2010Prop53
 90
        2
102
RTVSPost2010PropOp53
 70
     0
102
RTVSPost2010Prop54
  1
strokes_ogs.tif
102
RTVSPost2010PropOp54
 70
     0
102
RTVSPost2010Prop55
280
     0
102
RTVSPost2010PropOp55
 70
     0
102
RTVSPost2010Prop56
140
1.0
102
RTVSPost2010PropOp56
 70
     0
102
RTVSPost2010Prop57
140
1.0
102
RTVSPost2010PropOp57
 70
     0
102
RTVSPropertyOp0
 70
     0
102
RTVSPropertyOp1
 70
     0
102
RTVSPropertyOp2
 70
     0
102
RTVSPropertyOp3
 70
     0
102
RTVSPropertyOp4
 70
     0
102
RTVSPropertyOp5
 70
     0
102
RTVSPropertyOp6
 70
     0
102
RTVSPropertyOp7
 70
     0
102
RTVSPropertyOp8
 70
     0
102
RTVSPropertyOp9
 70
     0
102
RTVSPropertyOp10
 70
     0
102
RTVSPropertyOp11
 70
     0
102
RTVSPropertyOp12
 70
     0
102
RTVSPropertyOp13
 70
     0
102
RTVSPropertyOp14
 70
     2
102
RTVSPropertyOp15
 70
     0
102
RTVSPropertyOp16
 70
     0
102
RTVSPropertyOp17
 70
     0
102
RTVSPropertyOp18
 70
     0
102
RTVSPropertyOp19
 70
     0
102
RTVSPropertyOp20
 70
     0
102
RTVSPropertyOp21
 70
     0
102
RTVSPropertyOp22
 70
     0
102
RTVSPropertyOp23
 70
     0
102
RTVSPropertyOp24
 70
     0
102
RTVSPropertyOp25
 70
     0
102
RTVSPropertyOp26
 70
     0
102
RTVSPropertyOp27
 70
     0
102
RTVSPropertyOp28
 70
     0
102
RTVSPropertyOp29
 70
     0
102
RTVSPropertyOp30
 70
     0
102
RTVSPropertyOp31
 70
     0
102
RTVSPropertyOp32
 70
     0
102
RTVSPropertyOp33
 70
     0
102
RTVSPropertyOp34
 70
     0
102
RTVSPropertyOp35
 70
     0
102
RTVSPropertyOp36
 70
     0
102
RTVSPropertyOp37
 70
     0
102
RTVSPropertyOp38
 70
     0
102
RTVSPropertyOp39
 70
     0
102
RTVSPropertyOp40
 70
     0
102
RTVSPropertyOp41
 70
     0
102
RTVSPropertyOp42
 70
     0
102
RTVSPropertyOp43
 70
     0
102
RTVSPropertyOp44
 70
     0
102
RTVSPropertyOp45
 70
     0
102
RTVSPropertyOp46
 70
     0
102
RTVSPropertyOp47
 70
     0
102
RTVSPropertyOp48
 70
     0
102
RTVSPropertyOp49
 70
     0
102
RTVSPropertyOp50
 70
     0
102
RTVSPropertyOp51
 70
     0
102
RTVSPropertyOp52
 70
     0
102
RTVSPropertyOp53
 70
     0
102
RTVSPropertyOp54
 70
     0
102
RTVSPropertyOp55
 70
     0
102
RTVSPropertyOp56
 70
     0
102
RTVSPropertyOp57
 70
     0
102
RTVSPropertyOp58
 70
     1
102
RTVSPropertyOp59
 70
     1
102
RTVSPropertyOp60
 70
     1
102
RTVSPropertyOp61
 70
     1
102
RTVSPropertyOp62
 70
     1
  0
XRECORD
  5
6B6
102
{ACAD_REACTORS
330
6B5
102
}
330
6B5
100
AcDbXrecord
280
     1
102
RTVSPost2010Prop28
280
     0
102
RTVSPost2010PropOp28
 70
     1
102
RTVSPost2010Prop29
280
     1
102
RTVSPost2010PropOp29
 70
     1
102
RTVSPost2010Prop30
280
     1
102
RTVSPost2010PropOp30
 70
     1
102
RTVSPost2010Prop31
280
     0
102
RTVSPost2010PropOp31
 70
     1
102
RTVSPost2010Prop32
280
     0
102
RTVSPost2010PropOp32
 70
     1
102
RTVSPost2010Prop33
280
     0
102
RTVSPost2010PropOp33
 70
     1
102
RTVSPost2010Prop34
280
     0
102
RTVSPost2010PropOp34
 70
     1
102
RTVSPost2010Prop35
280
     0
102
RTVSPost2010PropOp35
 70
     1
102
RTVSPost2010Prop36
280
     0
102
RTVSPost2010PropOp36
 70
     1
102
RTVSPost2010Prop37
 90
       50
102
RTVSPost2010PropOp37
 70
     1
102
RTVSPost2010Prop38
140
0.0
102
RTVSPost2010PropOp38
 70
     1
102
RTVSPost2010Prop39
140
1.0
102
RTVSPost2010PropOp39
 70
     1
102
RTVSPost2010Prop40
 90
        0
102
RTVSPost2010PropOp40
 70
     1
102
RTVSPost2010Prop41ColorIndex
 90
       18
102
RTVSPost2010Prop41ColorRGB
 90
        0
102
RTVSPost2010PropOp41
 70
     1
102
RTVSPost2010Prop42
 90
       50
102
RTVSPost2010PropOp42
 70
     1
102
RTVSPost2010Prop43
 90
        3
102
RTVSPost2010PropOp43
 70
     1
102
RTVSPost2010Prop44ColorIndex
 90
        5
102
RTVSPost2010Prop44ColorRGB
 90
      255
102
RTVSPost2010PropOp44
 70
     1
102
RTVSPost2010Prop45
280
     0
102
RTVSPost2010PropOp45
 70
     1
102
RTVSPost2010Prop46
 90
       50
102
RTVSPost2010PropOp46
 70
     1
102
RTVSPost2010Prop47
 90
       50
102
RTVSPost2010PropOp47
 70
     1
102
RTVSPost2010Prop48
 90
       50
102
RTVSPost2010PropOp48
 70
     1
102
RTVSPost2010Prop49
280
     0
102
RTVSPost2010PropOp49
 70
     1
102
RTVSPost2010Prop50
 90
       50
102
RTVSPost2010PropOp50
 70
     1
102
RTVSPost2010Prop51ColorIndex
 90
      256
102
RTVSPost2010Prop51ColorRGB
 90
-16777216
102
RTVSPost2010PropOp51
 70
     0
102
RTVSPost2010Prop52
140
1.0
102
RTVSPost2010PropOp52
 70
     0
102
RTVSPost2010Prop53
 90
        2
102
RTVSPost2010PropOp53
 70
     1
102
RTVSPost2010Prop54
  1
strokes_ogs.tif
102
RTVSPost2010PropOp54
 70
     1
102
RTVSPost2010Prop55
280
     0
102
RTVSPost2010PropOp55
 70
     1
102
RTVSPost2010Prop56
140
1.0
102
RTVSPost2010PropOp56
 70
     1
102
RTVSPost2010Prop57
140
1.0
102
RTVSPost2010PropOp57
 70
     1
102
RTVSPropertyOp0
 70
     1
102
RTVSPropertyOp1
 70
     1
102
RTVSPropertyOp2
 70
     1
102
RTVSPropertyOp3
 70
     1
102
RTVSPropertyOp4
 70
     1
102
RTVSPropertyOp5
 70
     1
102
RTVSPropertyOp6
 70
     1
102
RTVSPropertyOp7
 70
     1
102
RTVSPropertyOp8
 70
     1
102
RTVSPropertyOp9
 70
     1
102
RTVSPropertyOp10
 70
     1
102
RTVSPropertyOp11
 70
     1
102
RTVSPropertyOp12
 70
     1
102
RTVSPropertyOp13
 70
     1
102
RTVSPropertyOp14
 70
     1
102
RTVSPropertyOp15
 70
     1
102
RTVSPropertyOp16
 70
     1
102
RTVSPropertyOp17
 70
     1
102
RTVSPropertyOp18
 70
     1
102
RTVSPropertyOp19
 70
     1
102
RTVSPropertyOp20
 70
     1
102
RTVSPropertyOp21
 70
     1
102
RTVSPropertyOp22
 70
     1
102
RTVSPropertyOp23
 70
     1
102
RTVSPropertyOp24
 70
     1
102
RTVSPropertyOp25
 70
     1
102
RTVSPropertyOp26
 70
     1
102
RTVSPropertyOp27
 70
     1
102
RTVSPropertyOp28
 70
     1
102
RTVSPropertyOp29
 70
     1
102
RTVSPropertyOp30
 70
     1
102
RTVSPropertyOp31
 70
     1
102
RTVSPropertyOp32
 70
     1
102
RTVSPropertyOp33
 70
     1
102
RTVSPropertyOp34
 70
     1
102
RTVSPropertyOp35
 70
     1
102
RTVSPropertyOp36
 70
     1
102
RTVSPropertyOp37
 70
     1
102
RTVSPropertyOp38
 70
     1
102
RTVSPropertyOp39
 70
     1
102
RTVSPropertyOp40
 70
     1
102
RTVSPropertyOp41
 70
     1
102
RTVSPropertyOp42
 70
     1
102
RTVSPropertyOp43
 70
     1
102
RTVSPropertyOp44
 70
     1
102
RTVSPropertyOp45
 70
     1
102
RTVSPropertyOp46
 70
     1
102
RTVSPropertyOp47
 70
     1
102
RTVSPropertyOp48
 70
     1
102
RTVSPropertyOp49
 70
     1
102
RTVSPropertyOp50
 70
     1
102
RTVSPropertyOp51
 70
     0
102
RTVSPropertyOp52
 70
     0
102
RTVSPropertyOp53
 70
     1
102
RTVSPropertyOp54
 70
     1
102
RTVSPropertyOp55
 70
     1
102
RTVSPropertyOp56
 70
     1
102
RTVSPropertyOp57
 70
     1
102
RTVSPropertyOp58
 70
     1
102
RTVSPropertyOp59
 70
     1
102
RTVSPropertyOp60
 70
     1
102
RTVSPropertyOp61
 70
     1
102
RTVSPropertyOp62
 70
     1
  0
XRECORD
  5
6C8
102
{ACAD_REACTORS
330
6C7
102
}
330
6C7
100
AcDbXrecord
280
     1
102
RTVSPost2010Prop28
280
     0
102
RTVSPost2010PropOp28
 70
     0
102
RTVSPost2010Prop29
280
     1
102
RTVSPost2010PropOp29
 70
     0
102
RTVSPost2010Prop30
280
     1
102
RTVSPost2010PropOp30
 70
     0
102
RTVSPost2010Prop31
280
     0
102
RTVSPost2010PropOp31
 70
     0
102
RTVSPost2010Prop32
280
     0
102
RTVSPost2010PropOp32
 70
     0
102
RTVSPost2010Prop33
280
     0
102
RTVSPost2010PropOp33
 70
     0
102
RTVSPost2010Prop34
280
     0
102
RTVSPost2010PropOp34
 70
     0
102
RTVSPost2010Prop35
280
     0
102
RTVSPost2010PropOp35
 70
     0
102
RTVSPost2010Prop36
280
     0
102
RTVSPost2010PropOp36
 70
     0
102
RTVSPost2010Prop37
 90
       50
102
RTVSPost2010PropOp37
 70
     0
102
RTVSPost2010Prop38
140
0.0
102
RTVSPost2010PropOp38
 70
     0
102
RTVSPost2010Prop39
140
1.0
102
RTVSPost2010PropOp39
 70
     0
102
RTVSPost2010Prop40
 90
        0
102
RTVSPost2010PropOp40
 70
     0
102
RTVSPost2010Prop41ColorIndex
 90
       18
102
RTVSPost2010Prop41ColorRGB
 90
        0
102
RTVSPost2010PropOp41
 70
     0
102
RTVSPost2010Prop42
 90
       50
102
RTVSPost2010PropOp42
 70
     0
102
RTVSPost2010Prop43
 90
        3
102
RTVSPost2010PropOp43
 70
     0
102
RTVSPost2010Prop44ColorIndex
 90
        5
102
RTVSPost2010Prop44ColorRGB
 90
      255
102
RTVSPost2010PropOp44
 70
     0
102
RTVSPost2010Prop45
280
     0
102
RTVSPost2010PropOp45
 70
     0
102
RTVSPost2010Prop46
 90
       50
102
RTVSPost2010PropOp46
 70
     0
102
RTVSPost2010Prop47
 90
       50
102
RTVSPost2010PropOp47
 70
     0
102
RTVSPost2010Prop48
 90
       50
102
RTVSPost2010PropOp48
 70
     0
102
RTVSPost2010Prop49
280
     0
102
RTVSPost2010PropOp49
 70
     0
102
RTVSPost2010Prop50
 90
       50
102
RTVSPost2010PropOp50
 70
     0
102
RTVSPost2010Prop51ColorIndex
 90
      256
102
RTVSPost2010Prop51ColorRGB
 90
-16777216
102
RTVSPost2010PropOp51
 70
     0
102
RTVSPost2010Prop52
140
1.0
102
RTVSPost2010PropOp52
 70
     0
102
RTVSPost2010Prop53
 90
        2
102
RTVSPost2010PropOp53
 70
     0
102
RTVSPost2010Prop54
  1
strokes_ogs.tif
102
RTVSPost2010PropOp54
 70
     0
102
RTVSPost2010Prop55
280
     0
102
RTVSPost2010PropOp55
 70
     0
102
RTVSPost2010Prop56
140
1.0
102
RTVSPost2010PropOp56
 70
     0
102
RTVSPost2010Prop57
140
1.0
102
RTVSPost2010PropOp57
 70
     0
102
RTVSPropertyOp0
 70
     0
102
RTVSPropertyOp1
 70
     0
102
RTVSPropertyOp2
 70
     0
102
RTVSPropertyOp3
 70
     0
102
RTVSPropertyOp4
 70
     0
102
RTVSPropertyOp5
 70
     0
102
RTVSPropertyOp6
 70
     0
102
RTVSPropertyOp7
 70
     0
102
RTVSPropertyOp8
 70
     0
102
RTVSPropertyOp9
 70
     0
102
RTVSPropertyOp10
 70
     0
102
RTVSPropertyOp11
 70
     0
102
RTVSPropertyOp12
 70
     0
102
RTVSPropertyOp13
 70
     0
102
RTVSPropertyOp14
 70
     2
102
RTVSPropertyOp15
 70
     0
102
RTVSPropertyOp16
 70
     0
102
RTVSPropertyOp17
 70
     0
102
RTVSPropertyOp18
 70
     0
102
RTVSPropertyOp19
 70
     0
102
RTVSPropertyOp20
 70
     0
102
RTVSPropertyOp21
 70
     0
102
RTVSPropertyOp22
 70
     0
102
RTVSPropertyOp23
 70
     0
102
RTVSPropertyOp24
 70
     0
102
RTVSPropertyOp25
 70
     0
102
RTVSPropertyOp26
 70
     0
102
RTVSPropertyOp27
 70
     0
102
RTVSPropertyOp28
 70
     0
102
RTVSPropertyOp29
 70
     0
102
RTVSPropertyOp30
 70
     0
102
RTVSPropertyOp31
 70
     0
102
RTVSPropertyOp32
 70
     0
102
RTVSPropertyOp33
 70
     0
102
RTVSPropertyOp34
 70
     0
102
RTVSPropertyOp35
 70
     0
102
RTVSPropertyOp36
 70
     0
102
RTVSPropertyOp37
 70
     0
102
RTVSPropertyOp38
 70
     0
102
RTVSPropertyOp39
 70
     0
102
RTVSPropertyOp40
 70
     0
102
RTVSPropertyOp41
 70
     0
102
RTVSPropertyOp42
 70
     0
102
RTVSPropertyOp43
 70
     0
102
RTVSPropertyOp44
 70
     0
102
RTVSPropertyOp45
 70
     0
102
RTVSPropertyOp46
 70
     0
102
RTVSPropertyOp47
 70
     0
102
RTVSPropertyOp48
 70
     0
102
RTVSPropertyOp49
 70
     0
102
RTVSPropertyOp50
 70
     0
102
RTVSPropertyOp51
 70
     0
102
RTVSPropertyOp52
 70
     0
102
RTVSPropertyOp53
 70
     0
102
RTVSPropertyOp54
 70
     0
102
RTVSPropertyOp55
 70
     0
102
RTVSPropertyOp56
 70
     0
102
RTVSPropertyOp57
 70
     0
102
RTVSPropertyOp58
 70
     1
102
RTVSPropertyOp59
 70
     1
102
RTVSPropertyOp60
 70
     1
102
RTVSPropertyOp61
 70
     1
102
RTVSPropertyOp62
 70
     1
  0
XRECORD
  5
6AE
102
{ACAD_REACTORS
330
6AD
102
}
330
6AD
100
AcDbXrecord
280
     1
102
RTVSPost2010Prop28
280
     0
102
RTVSPost2010PropOp28
 70
     1
102
RTVSPost2010Prop29
280
     1
102
RTVSPost2010PropOp29
 70
     1
102
RTVSPost2010Prop30
280
     1
102
RTVSPost2010PropOp30
 70
     1
102
RTVSPost2010Prop31
280
     0
102
RTVSPost2010PropOp31
 70
     1
102
RTVSPost2010Prop32
280
     0
102
RTVSPost2010PropOp32
 70
     1
102
RTVSPost2010Prop33
280
     0
102
RTVSPost2010PropOp33
 70
     1
102
RTVSPost2010Prop34
280
     0
102
RTVSPost2010PropOp34
 70
     1
102
RTVSPost2010Prop35
280
     0
102
RTVSPost2010PropOp35
 70
     1
102
RTVSPost2010Prop36
280
     0
102
RTVSPost2010PropOp36
 70
     1
102
RTVSPost2010Prop37
 90
       50
102
RTVSPost2010PropOp37
 70
     1
102
RTVSPost2010Prop38
140
0.0
102
RTVSPost2010PropOp38
 70
     1
102
RTVSPost2010Prop39
140
1.0
102
RTVSPost2010PropOp39
 70
     1
102
RTVSPost2010Prop40
 90
        0
102
RTVSPost2010PropOp40
 70
     1
102
RTVSPost2010Prop41ColorIndex
 90
       18
102
RTVSPost2010Prop41ColorRGB
 90
        0
102
RTVSPost2010PropOp41
 70
     1
102
RTVSPost2010Prop42
 90
       50
102
RTVSPost2010PropOp42
 70
     1
102
RTVSPost2010Prop43
 90
        3
102
RTVSPost2010PropOp43
 70
     1
102
RTVSPost2010Prop44ColorIndex
 90
        5
102
RTVSPost2010Prop44ColorRGB
 90
      255
102
RTVSPost2010PropOp44
 70
     1
102
RTVSPost2010Prop45
280
     0
102
RTVSPost2010PropOp45
 70
     1
102
RTVSPost2010Prop46
 90
       50
102
RTVSPost2010PropOp46
 70
     1
102
RTVSPost2010Prop47
 90
       50
102
RTVSPost2010PropOp47
 70
     1
102
RTVSPost2010Prop48
 90
       50
102
RTVSPost2010PropOp48
 70
     1
102
RTVSPost2010Prop49
280
     0
102
RTVSPost2010PropOp49
 70
     1
102
RTVSPost2010Prop50
 90
       50
102
RTVSPost2010PropOp50
 70
     1
102
RTVSPost2010Prop51ColorIndex
 90
      256
102
RTVSPost2010Prop51ColorRGB
 90
-16777216
102
RTVSPost2010PropOp51
 70
     0
102
RTVSPost2010Prop52
140
1.0
102
RTVSPost2010PropOp52
 70
     0
102
RTVSPost2010Prop53
 90
        2
102
RTVSPost2010PropOp53
 70
     1
102
RTVSPost2010Prop54
  1
strokes_ogs.tif
102
RTVSPost2010PropOp54
 70
     1
102
RTVSPost2010Prop55
280
     0
102
RTVSPost2010PropOp55
 70
     1
102
RTVSPost2010Prop56
140
1.0
102
RTVSPost2010PropOp56
 70
     1
102
RTVSPost2010Prop57
140
1.0
102
RTVSPost2010PropOp57
 70
     1
102
RTVSPropertyOp0
 70
     1
102
RTVSPropertyOp1
 70
     1
102
RTVSPropertyOp2
 70
     1
102
RTVSPropertyOp3
 70
     1
102
RTVSPropertyOp4
 70
     1
102
RTVSPropertyOp5
 70
     1
102
RTVSPropertyOp6
 70
     1
102
RTVSPropertyOp7
 70
     1
102
RTVSPropertyOp8
 70
     1
102
RTVSPropertyOp9
 70
     1
102
RTVSPropertyOp10
 70
     1
102
RTVSPropertyOp11
 70
     1
102
RTVSPropertyOp12
 70
     1
102
RTVSPropertyOp13
 70
     1
102
RTVSPropertyOp14
 70
     1
102
RTVSPropertyOp15
 70
     1
102
RTVSPropertyOp16
 70
     1
102
RTVSPropertyOp17
 70
     1
102
RTVSPropertyOp18
 70
     1
102
RTVSPropertyOp19
 70
     1
102
RTVSPropertyOp20
 70
     1
102
RTVSPropertyOp21
 70
     1
102
RTVSPropertyOp22
 70
     1
102
RTVSPropertyOp23
 70
     1
102
RTVSPropertyOp24
 70
     1
102
RTVSPropertyOp25
 70
     1
102
RTVSPropertyOp26
 70
     1
102
RTVSPropertyOp27
 70
     1
102
RTVSPropertyOp28
 70
     1
102
RTVSPropertyOp29
 70
     1
102
RTVSPropertyOp30
 70
     1
102
RTVSPropertyOp31
 70
     1
102
RTVSPropertyOp32
 70
     1
102
RTVSPropertyOp33
 70
     1
102
RTVSPropertyOp34
 70
     1
102
RTVSPropertyOp35
 70
     1
102
RTVSPropertyOp36
 70
     1
102
RTVSPropertyOp37
 70
     1
102
RTVSPropertyOp38
 70
     1
102
RTVSPropertyOp39
 70
     1
102
RTVSPropertyOp40
 70
     1
102
RTVSPropertyOp41
 70
     1
102
RTVSPropertyOp42
 70
     1
102
RTVSPropertyOp43
 70
     1
102
RTVSPropertyOp44
 70
     1
102
RTVSPropertyOp45
 70
     1
102
RTVSPropertyOp46
 70
     1
102
RTVSPropertyOp47
 70
     1
102
RTVSPropertyOp48
 70
     1
102
RTVSPropertyOp49
 70
     1
102
RTVSPropertyOp50
 70
     1
102
RTVSPropertyOp51
 70
     0
102
RTVSPropertyOp52
 70
     0
102
RTVSPropertyOp53
 70
     1
102
RTVSPropertyOp54
 70
     1
102
RTVSPropertyOp55
 70
     1
102
RTVSPropertyOp56
 70
     1
102
RTVSPropertyOp57
 70
     1
102
RTVSPropertyOp58
 70
     1
102
RTVSPropertyOp59
 70
     1
102
RTVSPropertyOp60
 70
     1
102
RTVSPropertyOp61
 70
     1
102
RTVSPropertyOp62
 70
     1
  0
XRECORD
  5
6C4
102
{ACAD_REACTORS
330
6C3
102
}
330
6C3
100
AcDbXrecord
280
     1
102
RTVSPost2010Prop28
280
     0
102
RTVSPost2010PropOp28
 70
     1
102
RTVSPost2010Prop29
280
     1
102
RTVSPost2010PropOp29
 70
     1
102
RTVSPost2010Prop30
280
     1
102
RTVSPost2010PropOp30
 70
     1
102
RTVSPost2010Prop31
280
     0
102
RTVSPost2010PropOp31
 70
     1
102
RTVSPost2010Prop32
280
     0
102
RTVSPost2010PropOp32
 70
     1
102
RTVSPost2010Prop33
280
     0
102
RTVSPost2010PropOp33
 70
     1
102
RTVSPost2010Prop34
280
     0
102
RTVSPost2010PropOp34
 70
     1
102
RTVSPost2010Prop35
280
     0
102
RTVSPost2010PropOp35
 70
     1
102
RTVSPost2010Prop36
280
     0
102
RTVSPost2010PropOp36
 70
     1
102
RTVSPost2010Prop37
 90
       50
102
RTVSPost2010PropOp37
 70
     1
102
RTVSPost2010Prop38
140
0.0
102
RTVSPost2010PropOp38
 70
     1
102
RTVSPost2010Prop39
140
1.0
102
RTVSPost2010PropOp39
 70
     1
102
RTVSPost2010Prop40
 90
        0
102
RTVSPost2010PropOp40
 70
     1
102
RTVSPost2010Prop41ColorIndex
 90
       18
102
RTVSPost2010Prop41ColorRGB
 90
        0
102
RTVSPost2010PropOp41
 70
     1
102
RTVSPost2010Prop42
 90
       50
102
RTVSPost2010PropOp42
 70
     1
102
RTVSPost2010Prop43
 90
        3
102
RTVSPost2010PropOp43
 70
     1
102
RTVSPost2010Prop44ColorIndex
 90
        5
102
RTVSPost2010Prop44ColorRGB
 90
      255
102
RTVSPost2010PropOp44
 70
     1
102
RTVSPost2010Prop45
280
     0
102
RTVSPost2010PropOp45
 70
     1
102
RTVSPost2010Prop46
 90
       50
102
RTVSPost2010PropOp46
 70
     1
102
RTVSPost2010Prop47
 90
       50
102
RTVSPost2010PropOp47
 70
     1
102
RTVSPost2010Prop48
 90
       50
102
RTVSPost2010PropOp48
 70
     1
102
RTVSPost2010Prop49
280
     0
102
RTVSPost2010PropOp49
 70
     1
102
RTVSPost2010Prop50
 90
       50
102
RTVSPost2010PropOp50
 70
     1
102
RTVSPost2010Prop51ColorIndex
 90
      256
102
RTVSPost2010Prop51ColorRGB
 90
-16777216
102
RTVSPost2010PropOp51
 70
     0
102
RTVSPost2010Prop52
140
1.0
102
RTVSPost2010PropOp52
 70
     0
102
RTVSPost2010Prop53
 90
        2
102
RTVSPost2010PropOp53
 70
     1
102
RTVSPost2010Prop54
  1
strokes_ogs.tif
102
RTVSPost2010PropOp54
 70
     1
102
RTVSPost2010Prop55
280
     0
102
RTVSPost2010PropOp55
 70
     1
102
RTVSPost2010Prop56
140
1.0
102
RTVSPost2010PropOp56
 70
     1
102
RTVSPost2010Prop57
140
1.0
102
RTVSPost2010PropOp57
 70
     1
102
RTVSPropertyOp0
 70
     1
102
RTVSPropertyOp1
 70
     1
102
RTVSPropertyOp2
 70
     1
102
RTVSPropertyOp3
 70
     1
102
RTVSPropertyOp4
 70
     1
102
RTVSPropertyOp5
 70
     1
102
RTVSPropertyOp6
 70
     1
102
RTVSPropertyOp7
 70
     1
102
RTVSPropertyOp8
 70
     1
102
RTVSPropertyOp9
 70
     1
102
RTVSPropertyOp10
 70
     1
102
RTVSPropertyOp11
 70
     1
102
RTVSPropertyOp12
 70
     1
102
RTVSPropertyOp13
 70
     1
102
RTVSPropertyOp14
 70
     1
102
RTVSPropertyOp15
 70
     1
102
RTVSPropertyOp16
 70
     1
102
RTVSPropertyOp17
 70
     1
102
RTVSPropertyOp18
 70
     1
102
RTVSPropertyOp19
 70
     1
102
RTVSPropertyOp20
 70
     1
102
RTVSPropertyOp21
 70
     1
102
RTVSPropertyOp22
 70
     1
102
RTVSPropertyOp23
 70
     1
102
RTVSPropertyOp24
 70
     1
102
RTVSPropertyOp25
 70
     1
102
RTVSPropertyOp26
 70
     1
102
RTVSPropertyOp27
 70
     1
102
RTVSPropertyOp28
 70
     1
102
RTVSPropertyOp29
 70
     1
102
RTVSPropertyOp30
 70
     1
102
RTVSPropertyOp31
 70
     1
102
RTVSPropertyOp32
 70
     1
102
RTVSPropertyOp33
 70
     1
102
RTVSPropertyOp34
 70
     1
102
RTVSPropertyOp35
 70
     1
102
RTVSPropertyOp36
 70
     1
102
RTVSPropertyOp37
 70
     1
102
RTVSPropertyOp38
 70
     1
102
RTVSPropertyOp39
 70
     1
102
RTVSPropertyOp40
 70
     1
102
RTVSPropertyOp41
 70
     1
102
RTVSPropertyOp42
 70
     1
102
RTVSPropertyOp43
 70
     1
102
RTVSPropertyOp44
 70
     1
102
RTVSPropertyOp45
 70
     1
102
RTVSPropertyOp46
 70
     1
102
RTVSPropertyOp47
 70
     1
102
RTVSPropertyOp48
 70
     1
102
RTVSPropertyOp49
 70
     1
102
RTVSPropertyOp50
 70
     1
102
RTVSPropertyOp51
 70
     0
102
RTVSPropertyOp52
 70
     0
102
RTVSPropertyOp53
 70
     1
102
RTVSPropertyOp54
 70
     1
102
RTVSPropertyOp55
 70
     1
102
RTVSPropertyOp56
 70
     1
102
RTVSPropertyOp57
 70
     1
102
RTVSPropertyOp58
 70
     1
102
RTVSPropertyOp59
 70
     1
102
RTVSPropertyOp60
 70
     1
102
RTVSPropertyOp61
 70
     1
102
RTVSPropertyOp62
 70
     1
  0
XRECORD
  5
6C2
102
{ACAD_REACTORS
330
6C1
102
}
330
6C1
100
AcDbXrecord
280
     1
102
RTVSPost2010Prop28
280
     0
102
RTVSPost2010PropOp28
 70
     1
102
RTVSPost2010Prop29
280
     1
102
RTVSPost2010PropOp29
 70
     1
102
RTVSPost2010Prop30
280
     1
102
RTVSPost2010PropOp30
 70
     1
102
RTVSPost2010Prop31
280
     0
102
RTVSPost2010PropOp31
 70
     1
102
RTVSPost2010Prop32
280
     0
102
RTVSPost2010PropOp32
 70
     1
102
RTVSPost2010Prop33
280
     0
102
RTVSPost2010PropOp33
 70
     1
102
RTVSPost2010Prop34
280
     0
102
RTVSPost2010PropOp34
 70
     1
102
RTVSPost2010Prop35
280
     0
102
RTVSPost2010PropOp35
 70
     1
102
RTVSPost2010Prop36
280
     0
102
RTVSPost2010PropOp36
 70
     1
102
RTVSPost2010Prop37
 90
       50
102
RTVSPost2010PropOp37
 70
     1
102
RTVSPost2010Prop38
140
0.0
102
RTVSPost2010PropOp38
 70
     1
102
RTVSPost2010Prop39
140
1.0
102
RTVSPost2010PropOp39
 70
     1
102
RTVSPost2010Prop40
 90
        0
102
RTVSPost2010PropOp40
 70
     1
102
RTVSPost2010Prop41ColorIndex
 90
       18
102
RTVSPost2010Prop41ColorRGB
 90
        0
102
RTVSPost2010PropOp41
 70
     1
102
RTVSPost2010Prop42
 90
       50
102
RTVSPost2010PropOp42
 70
     1
102
RTVSPost2010Prop43
 90
        3
102
RTVSPost2010PropOp43
 70
     1
102
RTVSPost2010Prop44ColorIndex
 90
        5
102
RTVSPost2010Prop44ColorRGB
 90
      255
102
RTVSPost2010PropOp44
 70
     1
102
RTVSPost2010Prop45
280
     0
102
RTVSPost2010PropOp45
 70
     1
102
RTVSPost2010Prop46
 90
       50
102
RTVSPost2010PropOp46
 70
     1
102
RTVSPost2010Prop47
 90
       50
102
RTVSPost2010PropOp47
 70
     1
102
RTVSPost2010Prop48
 90
       50
102
RTVSPost2010PropOp48
 70
     1
102
RTVSPost2010Prop49
280
     0
102
RTVSPost2010PropOp49
 70
     1
102
RTVSPost2010Prop50
 90
       50
102
RTVSPost2010PropOp50
 70
     1
102
RTVSPost2010Prop51ColorIndex
 90
      256
102
RTVSPost2010Prop51ColorRGB
 90
-16777216
102
RTVSPost2010PropOp51
 70
     0
102
RTVSPost2010Prop52
140
1.0
102
RTVSPost2010PropOp52
 70
     0
102
RTVSPost2010Prop53
 90
        2
102
RTVSPost2010PropOp53
 70
     1
102
RTVSPost2010Prop54
  1
strokes_ogs.tif
102
RTVSPost2010PropOp54
 70
     1
102
RTVSPost2010Prop55
280
     0
102
RTVSPost2010PropOp55
 70
     1
102
RTVSPost2010Prop56
140
1.0
102
RTVSPost2010PropOp56
 70
     1
102
RTVSPost2010Prop57
140
1.0
102
RTVSPost2010PropOp57
 70
     1
102
RTVSPropertyOp0
 70
     1
102
RTVSPropertyOp1
 70
     1
102
RTVSPropertyOp2
 70
     1
102
RTVSPropertyOp3
 70
     1
102
RTVSPropertyOp4
 70
     1
102
RTVSPropertyOp5
 70
     1
102
RTVSPropertyOp6
 70
     1
102
RTVSPropertyOp7
 70
     1
102
RTVSPropertyOp8
 70
     1
102
RTVSPropertyOp9
 70
     1
102
RTVSPropertyOp10
 70
     1
102
RTVSPropertyOp11
 70
     1
102
RTVSPropertyOp12
 70
     1
102
RTVSPropertyOp13
 70
     1
102
RTVSPropertyOp14
 70
     1
102
RTVSPropertyOp15
 70
     1
102
RTVSPropertyOp16
 70
     1
102
RTVSPropertyOp17
 70
     1
102
RTVSPropertyOp18
 70
     1
102
RTVSPropertyOp19
 70
     1
102
RTVSPropertyOp20
 70
     1
102
RTVSPropertyOp21
 70
     1
102
RTVSPropertyOp22
 70
     1
102
RTVSPropertyOp23
 70
     1
102
RTVSPropertyOp24
 70
     1
102
RTVSPropertyOp25
 70
     1
102
RTVSPropertyOp26
 70
     1
102
RTVSPropertyOp27
 70
     1
102
RTVSPropertyOp28
 70
     1
102
RTVSPropertyOp29
 70
     1
102
RTVSPropertyOp30
 70
     1
102
RTVSPropertyOp31
 70
     1
102
RTVSPropertyOp32
 70
     1
102
RTVSPropertyOp33
 70
     1
102
RTVSPropertyOp34
 70
     1
102
RTVSPropertyOp35
 70
     1
102
RTVSPropertyOp36
 70
     1
102
RTVSPropertyOp37
 70
     1
102
RTVSPropertyOp38
 70
     1
102
RTVSPropertyOp39
 70
     1
102
RTVSPropertyOp40
 70
     1
102
RTVSPropertyOp41
 70
     1
102
RTVSPropertyOp42
 70
     1
102
RTVSPropertyOp43
 70
     1
102
RTVSPropertyOp44
 70
     1
102
RTVSPropertyOp45
 70
     1
102
RTVSPropertyOp46
 70
     1
102
RTVSPropertyOp47
 70
     1
102
RTVSPropertyOp48
 70
     1
102
RTVSPropertyOp49
 70
     1
102
RTVSPropertyOp50
 70
     1
102
RTVSPropertyOp51
 70
     0
102
RTVSPropertyOp52
 70
     0
102
RTVSPropertyOp53
 70
     1
102
RTVSPropertyOp54
 70
     1
102
RTVSPropertyOp55
 70
     1
102
RTVSPropertyOp56
 70
     1
102
RTVSPropertyOp57
 70
     1
102
RTVSPropertyOp58
 70
     1
102
RTVSPropertyOp59
 70
     1
102
RTVSPropertyOp60
 70
     1
102
RTVSPropertyOp61
 70
     1
102
RTVSPropertyOp62
 70
     1
  0
XRECORD
  5
6BC
102
{ACAD_REACTORS
330
6BB
102
}
330
6BB
100
AcDbXrecord
280
     1
102
RTVSPost2010Prop28
280
     0
102
RTVSPost2010PropOp28
 70
     1
102
RTVSPost2010Prop29
280
     1
102
RTVSPost2010PropOp29
 70
     1
102
RTVSPost2010Prop30
280
     1
102
RTVSPost2010PropOp30
 70
     1
102
RTVSPost2010Prop31
280
     0
102
RTVSPost2010PropOp31
 70
     1
102
RTVSPost2010Prop32
280
     0
102
RTVSPost2010PropOp32
 70
     1
102
RTVSPost2010Prop33
280
     0
102
RTVSPost2010PropOp33
 70
     1
102
RTVSPost2010Prop34
280
     0
102
RTVSPost2010PropOp34
 70
     1
102
RTVSPost2010Prop35
280
     0
102
RTVSPost2010PropOp35
 70
     1
102
RTVSPost2010Prop36
280
     0
102
RTVSPost2010PropOp36
 70
     1
102
RTVSPost2010Prop37
 90
       50
102
RTVSPost2010PropOp37
 70
     1
102
RTVSPost2010Prop38
140
0.0
102
RTVSPost2010PropOp38
 70
     1
102
RTVSPost2010Prop39
140
1.0
102
RTVSPost2010PropOp39
 70
     1
102
RTVSPost2010Prop40
 90
        0
102
RTVSPost2010PropOp40
 70
     1
102
RTVSPost2010Prop41ColorIndex
 90
       18
102
RTVSPost2010Prop41ColorRGB
 90
        0
102
RTVSPost2010PropOp41
 70
     1
102
RTVSPost2010Prop42
 90
       50
102
RTVSPost2010PropOp42
 70
     1
102
RTVSPost2010Prop43
 90
        3
102
RTVSPost2010PropOp43
 70
     1
102
RTVSPost2010Prop44ColorIndex
 90
        5
102
RTVSPost2010Prop44ColorRGB
 90
      255
102
RTVSPost2010PropOp44
 70
     1
102
RTVSPost2010Prop45
280
     0
102
RTVSPost2010PropOp45
 70
     1
102
RTVSPost2010Prop46
 90
       50
102
RTVSPost2010PropOp46
 70
     1
102
RTVSPost2010Prop47
 90
       50
102
RTVSPost2010PropOp47
 70
     1
102
RTVSPost2010Prop48
 90
       50
102
RTVSPost2010PropOp48
 70
     1
102
RTVSPost2010Prop49
280
     0
102
RTVSPost2010PropOp49
 70
     1
102
RTVSPost2010Prop50
 90
       50
102
RTVSPost2010PropOp50
 70
     1
102
RTVSPost2010Prop51ColorIndex
 90
      256
102
RTVSPost2010Prop51ColorRGB
 90
-16777216
102
RTVSPost2010PropOp51
 70
     0
102
RTVSPost2010Prop52
140
1.0
102
RTVSPost2010PropOp52
 70
     0
102
RTVSPost2010Prop53
 90
        2
102
RTVSPost2010PropOp53
 70
     1
102
RTVSPost2010Prop54
  1
strokes_ogs.tif
102
RTVSPost2010PropOp54
 70
     1
102
RTVSPost2010Prop55
280
     0
102
RTVSPost2010PropOp55
 70
     1
102
RTVSPost2010Prop56
140
1.0
102
RTVSPost2010PropOp56
 70
     1
102
RTVSPost2010Prop57
140
1.0
102
RTVSPost2010PropOp57
 70
     1
102
RTVSPropertyOp0
 70
     1
102
RTVSPropertyOp1
 70
     1
102
RTVSPropertyOp2
 70
     1
102
RTVSPropertyOp3
 70
     1
102
RTVSPropertyOp4
 70
     1
102
RTVSPropertyOp5
 70
     1
102
RTVSPropertyOp6
 70
     1
102
RTVSPropertyOp7
 70
     1
102
RTVSPropertyOp8
 70
     1
102
RTVSPropertyOp9
 70
     1
102
RTVSPropertyOp10
 70
     1
102
RTVSPropertyOp11
 70
     1
102
RTVSPropertyOp12
 70
     1
102
RTVSPropertyOp13
 70
     1
102
RTVSPropertyOp14
 70
     1
102
RTVSPropertyOp15
 70
     1
102
RTVSPropertyOp16
 70
     1
102
RTVSPropertyOp17
 70
     1
102
RTVSPropertyOp18
 70
     1
102
RTVSPropertyOp19
 70
     1
102
RTVSPropertyOp20
 70
     1
102
RTVSPropertyOp21
 70
     1
102
RTVSPropertyOp22
 70
     1
102
RTVSPropertyOp23
 70
     1
102
RTVSPropertyOp24
 70
     1
102
RTVSPropertyOp25
 70
     1
102
RTVSPropertyOp26
 70
     1
102
RTVSPropertyOp27
 70
     1
102
RTVSPropertyOp28
 70
     1
102
RTVSPropertyOp29
 70
     1
102
RTVSPropertyOp30
 70
     1
102
RTVSPropertyOp31
 70
     1
102
RTVSPropertyOp32
 70
     1
102
RTVSPropertyOp33
 70
     1
102
RTVSPropertyOp34
 70
     1
102
RTVSPropertyOp35
 70
     1
102
RTVSPropertyOp36
 70
     1
102
RTVSPropertyOp37
 70
     1
102
RTVSPropertyOp38
 70
     1
102
RTVSPropertyOp39
 70
     1
102
RTVSPropertyOp40
 70
     1
102
RTVSPropertyOp41
 70
     1
102
RTVSPropertyOp42
 70
     1
102
RTVSPropertyOp43
 70
     1
102
RTVSPropertyOp44
 70
     1
102
RTVSPropertyOp45
 70
     1
102
RTVSPropertyOp46
 70
     1
102
RTVSPropertyOp47
 70
     1
102
RTVSPropertyOp48
 70
     1
102
RTVSPropertyOp49
 70
     1
102
RTVSPropertyOp50
 70
     1
102
RTVSPropertyOp51
 70
     0
102
RTVSPropertyOp52
 70
     0
102
RTVSPropertyOp53
 70
     1
102
RTVSPropertyOp54
 70
     1
102
RTVSPropertyOp55
 70
     1
102
RTVSPropertyOp56
 70
     1
102
RTVSPropertyOp57
 70
     1
102
RTVSPropertyOp58
 70
     1
102
RTVSPropertyOp59
 70
     1
102
RTVSPropertyOp60
 70
     1
102
RTVSPropertyOp61
 70
     1
102
RTVSPropertyOp62
 70
     1
  0
XRECORD
  5
6BE
102
{ACAD_REACTORS
330
6BD
102
}
330
6BD
100
AcDbXrecord
280
     1
102
RTVSPost2010Prop28
280
     0
102
RTVSPost2010PropOp28
 70
     1
102
RTVSPost2010Prop29
280
     1
102
RTVSPost2010PropOp29
 70
     1
102
RTVSPost2010Prop30
280
     1
102
RTVSPost2010PropOp30
 70
     1
102
RTVSPost2010Prop31
280
     0
102
RTVSPost2010PropOp31
 70
     1
102
RTVSPost2010Prop32
280
     0
102
RTVSPost2010PropOp32
 70
     1
102
RTVSPost2010Prop33
280
     0
102
RTVSPost2010PropOp33
 70
     1
102
RTVSPost2010Prop34
280
     0
102
RTVSPost2010PropOp34
 70
     1
102
RTVSPost2010Prop35
280
     0
102
RTVSPost2010PropOp35
 70
     1
102
RTVSPost2010Prop36
280
     0
102
RTVSPost2010PropOp36
 70
     1
102
RTVSPost2010Prop37
 90
       50
102
RTVSPost2010PropOp37
 70
     1
102
RTVSPost2010Prop38
140
0.0
102
RTVSPost2010PropOp38
 70
     1
102
RTVSPost2010Prop39
140
1.0
102
RTVSPost2010PropOp39
 70
     1
102
RTVSPost2010Prop40
 90
        0
102
RTVSPost2010PropOp40
 70
     1
102
RTVSPost2010Prop41ColorIndex
 90
       18
102
RTVSPost2010Prop41ColorRGB
 90
        0
102
RTVSPost2010PropOp41
 70
     1
102
RTVSPost2010Prop42
 90
       50
102
RTVSPost2010PropOp42
 70
     1
102
RTVSPost2010Prop43
 90
        3
102
RTVSPost2010PropOp43
 70
     1
102
RTVSPost2010Prop44ColorIndex
 90
        5
102
RTVSPost2010Prop44ColorRGB
 90
      255
102
RTVSPost2010PropOp44
 70
     1
102
RTVSPost2010Prop45
280
     0
102
RTVSPost2010PropOp45
 70
     1
102
RTVSPost2010Prop46
 90
       50
102
RTVSPost2010PropOp46
 70
     1
102
RTVSPost2010Prop47
 90
       50
102
RTVSPost2010PropOp47
 70
     1
102
RTVSPost2010Prop48
 90
       50
102
RTVSPost2010PropOp48
 70
     1
102
RTVSPost2010Prop49
280
     0
102
RTVSPost2010PropOp49
 70
     1
102
RTVSPost2010Prop50
 90
       50
102
RTVSPost2010PropOp50
 70
     1
102
RTVSPost2010Prop51ColorIndex
 90
      256
102
RTVSPost2010Prop51ColorRGB
 90
-16777216
102
RTVSPost2010PropOp51
 70
     0
102
RTVSPost2010Prop52
140
1.0
102
RTVSPost2010PropOp52
 70
     0
102
RTVSPost2010Prop53
 90
        2
102
RTVSPost2010PropOp53
 70
     1
102
RTVSPost2010Prop54
  1
strokes_ogs.tif
102
RTVSPost2010PropOp54
 70
     1
102
RTVSPost2010Prop55
280
     0
102
RTVSPost2010PropOp55
 70
     1
102
RTVSPost2010Prop56
140
1.0
102
RTVSPost2010PropOp56
 70
     1
102
RTVSPost2010Prop57
140
1.0
102
RTVSPost2010PropOp57
 70
     1
102
RTVSPropertyOp0
 70
     1
102
RTVSPropertyOp1
 70
     1
102
RTVSPropertyOp2
 70
     1
102
RTVSPropertyOp3
 70
     1
102
RTVSPropertyOp4
 70
     1
102
RTVSPropertyOp5
 70
     1
102
RTVSPropertyOp6
 70
     1
102
RTVSPropertyOp7
 70
     1
102
RTVSPropertyOp8
 70
     1
102
RTVSPropertyOp9
 70
     1
102
RTVSPropertyOp10
 70
     1
102
RTVSPropertyOp11
 70
     1
102
RTVSPropertyOp12
 70
     1
102
RTVSPropertyOp13
 70
     1
102
RTVSPropertyOp14
 70
     1
102
RTVSPropertyOp15
 70
     1
102
RTVSPropertyOp16
 70
     1
102
RTVSPropertyOp17
 70
     1
102
RTVSPropertyOp18
 70
     1
102
RTVSPropertyOp19
 70
     1
102
RTVSPropertyOp20
 70
     1
102
RTVSPropertyOp21
 70
     1
102
RTVSPropertyOp22
 70
     1
102
RTVSPropertyOp23
 70
     1
102
RTVSPropertyOp24
 70
     1
102
RTVSPropertyOp25
 70
     1
102
RTVSPropertyOp26
 70
     1
102
RTVSPropertyOp27
 70
     1
102
RTVSPropertyOp28
 70
     1
102
RTVSPropertyOp29
 70
     1
102
RTVSPropertyOp30
 70
     1
102
RTVSPropertyOp31
 70
     1
102
RTVSPropertyOp32
 70
     1
102
RTVSPropertyOp33
 70
     1
102
RTVSPropertyOp34
 70
     1
102
RTVSPropertyOp35
 70
     1
102
RTVSPropertyOp36
 70
     1
102
RTVSPropertyOp37
 70
     1
102
RTVSPropertyOp38
 70
     1
102
RTVSPropertyOp39
 70
     1
102
RTVSPropertyOp40
 70
     1
102
RTVSPropertyOp41
 70
     1
102
RTVSPropertyOp42
 70
     1
102
RTVSPropertyOp43
 70
     1
102
RTVSPropertyOp44
 70
     1
102
RTVSPropertyOp45
 70
     1
102
RTVSPropertyOp46
 70
     1
102
RTVSPropertyOp47
 70
     1
102
RTVSPropertyOp48
 70
     1
102
RTVSPropertyOp49
 70
     1
102
RTVSPropertyOp50
 70
     1
102
RTVSPropertyOp51
 70
     0
102
RTVSPropertyOp52
 70
     0
102
RTVSPropertyOp53
 70
     1
102
RTVSPropertyOp54
 70
     1
102
RTVSPropertyOp55
 70
     1
102
RTVSPropertyOp56
 70
     1
102
RTVSPropertyOp57
 70
     1
102
RTVSPropertyOp58
 70
     1
102
RTVSPropertyOp59
 70
     1
102
RTVSPropertyOp60
 70
     1
102
RTVSPropertyOp61
 70
     1
102
RTVSPropertyOp62
 70
     1
  0
XRECORD
  5
6B4
102
{ACAD_REACTORS
330
6B3
102
}
330
6B3
100
AcDbXrecord
280
     1
102
RTVSPost2010Prop28
280
     0
102
RTVSPost2010PropOp28
 70
     1
102
RTVSPost2010Prop29
280
     1
102
RTVSPost2010PropOp29
 70
     1
102
RTVSPost2010Prop30
280
     1
102
RTVSPost2010PropOp30
 70
     1
102
RTVSPost2010Prop31
280
     0
102
RTVSPost2010PropOp31
 70
     1
102
RTVSPost2010Prop32
280
     0
102
RTVSPost2010PropOp32
 70
     1
102
RTVSPost2010Prop33
280
     0
102
RTVSPost2010PropOp33
 70
     1
102
RTVSPost2010Prop34
280
     0
102
RTVSPost2010PropOp34
 70
     1
102
RTVSPost2010Prop35
280
     0
102
RTVSPost2010PropOp35
 70
     1
102
RTVSPost2010Prop36
280
     0
102
RTVSPost2010PropOp36
 70
     1
102
RTVSPost2010Prop37
 90
       50
102
RTVSPost2010PropOp37
 70
     1
102
RTVSPost2010Prop38
140
0.0
102
RTVSPost2010PropOp38
 70
     1
102
RTVSPost2010Prop39
140
1.0
102
RTVSPost2010PropOp39
 70
     1
102
RTVSPost2010Prop40
 90
        0
102
RTVSPost2010PropOp40
 70
     1
102
RTVSPost2010Prop41ColorIndex
 90
       18
102
RTVSPost2010Prop41ColorRGB
 90
        0
102
RTVSPost2010PropOp41
 70
     1
102
RTVSPost2010Prop42
 90
       50
102
RTVSPost2010PropOp42
 70
     1
102
RTVSPost2010Prop43
 90
        3
102
RTVSPost2010PropOp43
 70
     1
102
RTVSPost2010Prop44ColorIndex
 90
        5
102
RTVSPost2010Prop44ColorRGB
 90
      255
102
RTVSPost2010PropOp44
 70
     1
102
RTVSPost2010Prop45
280
     0
102
RTVSPost2010PropOp45
 70
     1
102
RTVSPost2010Prop46
 90
       50
102
RTVSPost2010PropOp46
 70
     1
102
RTVSPost2010Prop47
 90
       50
102
RTVSPost2010PropOp47
 70
     1
102
RTVSPost2010Prop48
 90
       50
102
RTVSPost2010PropOp48
 70
     1
102
RTVSPost2010Prop49
280
     0
102
RTVSPost2010PropOp49
 70
     1
102
RTVSPost2010Prop50
 90
       50
102
RTVSPost2010PropOp50
 70
     1
102
RTVSPost2010Prop51ColorIndex
 90
      256
102
RTVSPost2010Prop51ColorRGB
 90
-16777216
102
RTVSPost2010PropOp51
 70
     0
102
RTVSPost2010Prop52
140
1.0
102
RTVSPost2010PropOp52
 70
     0
102
RTVSPost2010Prop53
 90
        2
102
RTVSPost2010PropOp53
 70
     1
102
RTVSPost2010Prop54
  1
strokes_ogs.tif
102
RTVSPost2010PropOp54
 70
     1
102
RTVSPost2010Prop55
280
     0
102
RTVSPost2010PropOp55
 70
     1
102
RTVSPost2010Prop56
140
1.0
102
RTVSPost2010PropOp56
 70
     1
102
RTVSPost2010Prop57
140
1.0
102
RTVSPost2010PropOp57
 70
     1
102
RTVSPropertyOp0
 70
     1
102
RTVSPropertyOp1
 70
     1
102
RTVSPropertyOp2
 70
     1
102
RTVSPropertyOp3
 70
     1
102
RTVSPropertyOp4
 70
     1
102
RTVSPropertyOp5
 70
     1
102
RTVSPropertyOp6
 70
     1
102
RTVSPropertyOp7
 70
     1
102
RTVSPropertyOp8
 70
     1
102
RTVSPropertyOp9
 70
     1
102
RTVSPropertyOp10
 70
     1
102
RTVSPropertyOp11
 70
     1
102
RTVSPropertyOp12
 70
     1
102
RTVSPropertyOp13
 70
     1
102
RTVSPropertyOp14
 70
     1
102
RTVSPropertyOp15
 70
     1
102
RTVSPropertyOp16
 70
     1
102
RTVSPropertyOp17
 70
     1
102
RTVSPropertyOp18
 70
     1
102
RTVSPropertyOp19
 70
     1
102
RTVSPropertyOp20
 70
     1
102
RTVSPropertyOp21
 70
     1
102
RTVSPropertyOp22
 70
     1
102
RTVSPropertyOp23
 70
     1
102
RTVSPropertyOp24
 70
     1
102
RTVSPropertyOp25
 70
     1
102
RTVSPropertyOp26
 70
     1
102
RTVSPropertyOp27
 70
     1
102
RTVSPropertyOp28
 70
     1
102
RTVSPropertyOp29
 70
     1
102
RTVSPropertyOp30
 70
     1
102
RTVSPropertyOp31
 70
     1
102
RTVSPropertyOp32
 70
     1
102
RTVSPropertyOp33
 70
     1
102
RTVSPropertyOp34
 70
     1
102
RTVSPropertyOp35
 70
     1
102
RTVSPropertyOp36
 70
     1
102
RTVSPropertyOp37
 70
     1
102
RTVSPropertyOp38
 70
     1
102
RTVSPropertyOp39
 70
     1
102
RTVSPropertyOp40
 70
     1
102
RTVSPropertyOp41
 70
     1
102
RTVSPropertyOp42
 70
     1
102
RTVSPropertyOp43
 70
     1
102
RTVSPropertyOp44
 70
     1
102
RTVSPropertyOp45
 70
     1
102
RTVSPropertyOp46
 70
     1
102
RTVSPropertyOp47
 70
     1
102
RTVSPropertyOp48
 70
     1
102
RTVSPropertyOp49
 70
     1
102
RTVSPropertyOp50
 70
     1
102
RTVSPropertyOp51
 70
     0
102
RTVSPropertyOp52
 70
     0
102
RTVSPropertyOp53
 70
     1
102
RTVSPropertyOp54
 70
     1
102
RTVSPropertyOp55
 70
     1
102
RTVSPropertyOp56
 70
     1
102
RTVSPropertyOp57
 70
     1
102
RTVSPropertyOp58
 70
     1
102
RTVSPropertyOp59
 70
     1
102
RTVSPropertyOp60
 70
     1
102
RTVSPropertyOp61
 70
     1
102
RTVSPropertyOp62
 70
     1
  0
XRECORD
  5
6A8
102
{ACAD_REACTORS
330
6A7
102
}
330
6A7
100
AcDbXrecord
280
     1
102
RTVSPost2010Prop28
280
     0
102
RTVSPost2010PropOp28
 70
     1
102
RTVSPost2010Prop29
280
     1
102
RTVSPost2010PropOp29
 70
     1
102
RTVSPost2010Prop30
280
     1
102
RTVSPost2010PropOp30
 70
     1
102
RTVSPost2010Prop31
280
     0
102
RTVSPost2010PropOp31
 70
     1
102
RTVSPost2010Prop32
280
     0
102
RTVSPost2010PropOp32
 70
     1
102
RTVSPost2010Prop33
280
     0
102
RTVSPost2010PropOp33
 70
     1
102
RTVSPost2010Prop34
280
     0
102
RTVSPost2010PropOp34
 70
     1
102
RTVSPost2010Prop35
280
     0
102
RTVSPost2010PropOp35
 70
     1
102
RTVSPost2010Prop36
280
     0
102
RTVSPost2010PropOp36
 70
     1
102
RTVSPost2010Prop37
 90
       50
102
RTVSPost2010PropOp37
 70
     1
102
RTVSPost2010Prop38
140
0.0
102
RTVSPost2010PropOp38
 70
     1
102
RTVSPost2010Prop39
140
1.0
102
RTVSPost2010PropOp39
 70
     1
102
RTVSPost2010Prop40
 90
        0
102
RTVSPost2010PropOp40
 70
     1
102
RTVSPost2010Prop41ColorIndex
 90
       18
102
RTVSPost2010Prop41ColorRGB
 90
        0
102
RTVSPost2010PropOp41
 70
     1
102
RTVSPost2010Prop42
 90
       50
102
RTVSPost2010PropOp42
 70
     1
102
RTVSPost2010Prop43
 90
        3
102
RTVSPost2010PropOp43
 70
     1
102
RTVSPost2010Prop44ColorIndex
 90
        5
102
RTVSPost2010Prop44ColorRGB
 90
      255
102
RTVSPost2010PropOp44
 70
     1
102
RTVSPost2010Prop45
280
     0
102
RTVSPost2010PropOp45
 70
     1
102
RTVSPost2010Prop46
 90
       50
102
RTVSPost2010PropOp46
 70
     1
102
RTVSPost2010Prop47
 90
       50
102
RTVSPost2010PropOp47
 70
     1
102
RTVSPost2010Prop48
 90
       50
102
RTVSPost2010PropOp48
 70
     1
102
RTVSPost2010Prop49
280
     0
102
RTVSPost2010PropOp49
 70
     1
102
RTVSPost2010Prop50
 90
       50
102
RTVSPost2010PropOp50
 70
     1
102
RTVSPost2010Prop51ColorIndex
 90
      256
102
RTVSPost2010Prop51ColorRGB
 90
-16777216
102
RTVSPost2010PropOp51
 70
     0
102
RTVSPost2010Prop52
140
1.0
102
RTVSPost2010PropOp52
 70
     0
102
RTVSPost2010Prop53
 90
        2
102
RTVSPost2010PropOp53
 70
     1
102
RTVSPost2010Prop54
  1
strokes_ogs.tif
102
RTVSPost2010PropOp54
 70
     1
102
RTVSPost2010Prop55
280
     0
102
RTVSPost2010PropOp55
 70
     1
102
RTVSPost2010Prop56
140
1.0
102
RTVSPost2010PropOp56
 70
     1
102
RTVSPost2010Prop57
140
1.0
102
RTVSPost2010PropOp57
 70
     1
102
RTVSPropertyOp0
 70
     1
102
RTVSPropertyOp1
 70
     1
102
RTVSPropertyOp2
 70
     1
102
RTVSPropertyOp3
 70
     1
102
RTVSPropertyOp4
 70
     1
102
RTVSPropertyOp5
 70
     1
102
RTVSPropertyOp6
 70
     1
102
RTVSPropertyOp7
 70
     1
102
RTVSPropertyOp8
 70
     1
102
RTVSPropertyOp9
 70
     1
102
RTVSPropertyOp10
 70
     1
102
RTVSPropertyOp11
 70
     1
102
RTVSPropertyOp12
 70
     1
102
RTVSPropertyOp13
 70
     1
102
RTVSPropertyOp14
 70
     1
102
RTVSPropertyOp15
 70
     1
102
RTVSPropertyOp16
 70
     1
102
RTVSPropertyOp17
 70
     1
102
RTVSPropertyOp18
 70
     1
102
RTVSPropertyOp19
 70
     1
102
RTVSPropertyOp20
 70
     1
102
RTVSPropertyOp21
 70
     1
102
RTVSPropertyOp22
 70
     1
102
RTVSPropertyOp23
 70
     1
102
RTVSPropertyOp24
 70
     1
102
RTVSPropertyOp25
 70
     1
102
RTVSPropertyOp26
 70
     1
102
RTVSPropertyOp27
 70
     1
102
RTVSPropertyOp28
 70
     1
102
RTVSPropertyOp29
 70
     1
102
RTVSPropertyOp30
 70
     1
102
RTVSPropertyOp31
 70
     1
102
RTVSPropertyOp32
 70
     1
102
RTVSPropertyOp33
 70
     1
102
RTVSPropertyOp34
 70
     1
102
RTVSPropertyOp35
 70
     1
102
RTVSPropertyOp36
 70
     1
102
RTVSPropertyOp37
 70
     1
102
RTVSPropertyOp38
 70
     1
102
RTVSPropertyOp39
 70
     1
102
RTVSPropertyOp40
 70
     1
102
RTVSPropertyOp41
 70
     1
102
RTVSPropertyOp42
 70
     1
102
RTVSPropertyOp43
 70
     1
102
RTVSPropertyOp44
 70
     1
102
RTVSPropertyOp45
 70
     1
102
RTVSPropertyOp46
 70
     1
102
RTVSPropertyOp47
 70
     1
102
RTVSPropertyOp48
 70
     1
102
RTVSPropertyOp49
 70
     1
102
RTVSPropertyOp50
 70
     1
102
RTVSPropertyOp51
 70
     0
102
RTVSPropertyOp52
 70
     0
102
RTVSPropertyOp53
 70
     1
102
RTVSPropertyOp54
 70
     1
102
RTVSPropertyOp55
 70
     1
102
RTVSPropertyOp56
 70
     1
102
RTVSPropertyOp57
 70
     1
102
RTVSPropertyOp58
 70
     1
102
RTVSPropertyOp59
 70
     1
102
RTVSPropertyOp60
 70
     1
102
RTVSPropertyOp61
 70
     1
102
RTVSPropertyOp62
 70
     1
  0
XRECORD
  5
6C0
102
{ACAD_REACTORS
330
6BF
102
}
330
6BF
100
AcDbXrecord
280
     1
102
RTVSPost2010Prop28
280
     0
102
RTVSPost2010PropOp28
 70
     1
102
RTVSPost2010Prop29
280
     1
102
RTVSPost2010PropOp29
 70
     1
102
RTVSPost2010Prop30
280
     1
102
RTVSPost2010PropOp30
 70
     1
102
RTVSPost2010Prop31
280
     0
102
RTVSPost2010PropOp31
 70
     1
102
RTVSPost2010Prop32
280
     0
102
RTVSPost2010PropOp32
 70
     1
102
RTVSPost2010Prop33
280
     0
102
RTVSPost2010PropOp33
 70
     1
102
RTVSPost2010Prop34
280
     0
102
RTVSPost2010PropOp34
 70
     1
102
RTVSPost2010Prop35
280
     0
102
RTVSPost2010PropOp35
 70
     1
102
RTVSPost2010Prop36
280
     0
102
RTVSPost2010PropOp36
 70
     1
102
RTVSPost2010Prop37
 90
       50
102
RTVSPost2010PropOp37
 70
     1
102
RTVSPost2010Prop38
140
0.0
102
RTVSPost2010PropOp38
 70
     1
102
RTVSPost2010Prop39
140
1.0
102
RTVSPost2010PropOp39
 70
     1
102
RTVSPost2010Prop40
 90
        0
102
RTVSPost2010PropOp40
 70
     1
102
RTVSPost2010Prop41ColorIndex
 90
       18
102
RTVSPost2010Prop41ColorRGB
 90
        0
102
RTVSPost2010PropOp41
 70
     1
102
RTVSPost2010Prop42
 90
       50
102
RTVSPost2010PropOp42
 70
     1
102
RTVSPost2010Prop43
 90
        3
102
RTVSPost2010PropOp43
 70
     1
102
RTVSPost2010Prop44ColorIndex
 90
        5
102
RTVSPost2010Prop44ColorRGB
 90
      255
102
RTVSPost2010PropOp44
 70
     1
102
RTVSPost2010Prop45
280
     0
102
RTVSPost2010PropOp45
 70
     1
102
RTVSPost2010Prop46
 90
       50
102
RTVSPost2010PropOp46
 70
     1
102
RTVSPost2010Prop47
 90
       50
102
RTVSPost2010PropOp47
 70
     1
102
RTVSPost2010Prop48
 90
       50
102
RTVSPost2010PropOp48
 70
     1
102
RTVSPost2010Prop49
280
     0
102
RTVSPost2010PropOp49
 70
     1
102
RTVSPost2010Prop50
 90
       50
102
RTVSPost2010PropOp50
 70
     1
102
RTVSPost2010Prop51ColorIndex
 90
      256
102
RTVSPost2010Prop51ColorRGB
 90
-16777216
102
RTVSPost2010PropOp51
 70
     0
102
RTVSPost2010Prop52
140
1.0
102
RTVSPost2010PropOp52
 70
     0
102
RTVSPost2010Prop53
 90
        2
102
RTVSPost2010PropOp53
 70
     1
102
RTVSPost2010Prop54
  1
strokes_ogs.tif
102
RTVSPost2010PropOp54
 70
     1
102
RTVSPost2010Prop55
280
     0
102
RTVSPost2010PropOp55
 70
     1
102
RTVSPost2010Prop56
140
1.0
102
RTVSPost2010PropOp56
 70
     1
102
RTVSPost2010Prop57
140
1.0
102
RTVSPost2010PropOp57
 70
     1
102
RTVSPropertyOp0
 70
     1
102
RTVSPropertyOp1
 70
     1
102
RTVSPropertyOp2
 70
     1
102
RTVSPropertyOp3
 70
     1
102
RTVSPropertyOp4
 70
     1
102
RTVSPropertyOp5
 70
     1
102
RTVSPropertyOp6
 70
     1
102
RTVSPropertyOp7
 70
     1
102
RTVSPropertyOp8
 70
     1
102
RTVSPropertyOp9
 70
     1
102
RTVSPropertyOp10
 70
     1
102
RTVSPropertyOp11
 70
     1
102
RTVSPropertyOp12
 70
     1
102
RTVSPropertyOp13
 70
     1
102
RTVSPropertyOp14
 70
     1
102
RTVSPropertyOp15
 70
     1
102
RTVSPropertyOp16
 70
     1
102
RTVSPropertyOp17
 70
     1
102
RTVSPropertyOp18
 70
     1
102
RTVSPropertyOp19
 70
     1
102
RTVSPropertyOp20
 70
     1
102
RTVSPropertyOp21
 70
     1
102
RTVSPropertyOp22
 70
     1
102
RTVSPropertyOp23
 70
     1
102
RTVSPropertyOp24
 70
     1
102
RTVSPropertyOp25
 70
     1
102
RTVSPropertyOp26
 70
     1
102
RTVSPropertyOp27
 70
     1
102
RTVSPropertyOp28
 70
     1
102
RTVSPropertyOp29
 70
     1
102
RTVSPropertyOp30
 70
     1
102
RTVSPropertyOp31
 70
     1
102
RTVSPropertyOp32
 70
     1
102
RTVSPropertyOp33
 70
     1
102
RTVSPropertyOp34
 70
     1
102
RTVSPropertyOp35
 70
     1
102
RTVSPropertyOp36
 70
     1
102
RTVSPropertyOp37
 70
     1
102
RTVSPropertyOp38
 70
     1
102
RTVSPropertyOp39
 70
     1
102
RTVSPropertyOp40
 70
     1
102
RTVSPropertyOp41
 70
     1
102
RTVSPropertyOp42
 70
     1
102
RTVSPropertyOp43
 70
     1
102
RTVSPropertyOp44
 70
     1
102
RTVSPropertyOp45
 70
     1
102
RTVSPropertyOp46
 70
     1
102
RTVSPropertyOp47
 70
     1
102
RTVSPropertyOp48
 70
     1
102
RTVSPropertyOp49
 70
     1
102
RTVSPropertyOp50
 70
     1
102
RTVSPropertyOp51
 70
     0
102
RTVSPropertyOp52
 70
     0
102
RTVSPropertyOp53
 70
     1
102
RTVSPropertyOp54
 70
     1
102
RTVSPropertyOp55
 70
     1
102
RTVSPropertyOp56
 70
     1
102
RTVSPropertyOp57
 70
     1
102
RTVSPropertyOp58
 70
     1
102
RTVSPropertyOp59
 70
     1
102
RTVSPropertyOp60
 70
     1
102
RTVSPropertyOp61
 70
     1
102
RTVSPropertyOp62
 70
     1
  0
ENDSEC
  0
EOF
